The Walking Dead despedirá su quinta temporada con un episodio de 90 minutos | Matusalem VFQ | Power Rangers Samurai
 


 




Wir sind wenn hd-area.org mal ausfällt unter hd-area.biz erreichbar


Hier klickenfür Informationen zur Umgehung staatlicher Zensurmaßnahmen




Filmwünsche können bei uns im Forum abgegeben werden

Wir Speichern Nicht




 
 
 
Top Releases
The.Editor.2014.DUAL.COMPLET...
Hell.or.High.Water.2016.DUAL...
Hell.or.High.Water.2016.Germ...
Hell.or.High.Water.2016.Germ...
The.Editor.2014.German.720p....
The.Editor.2014.German.DL.10...
Personal.Shopper.German.DL.1...
Fences.2016.German.DL.1080p....
Den.Sternen.so.nah.2017.Germ...
Florence.Foster.Jenkins.2016...

Cinedubs
Die.Schluempfe.Das.verlorene...
Die.Schluempfe.Das.verlorene...
Kong.Skull.Island.2017.Germa...
Kong.Skull.Island.2017.Germa...
Das.Belko.Experiment.2017.GE...
Das.Belko.Experiment.2017.GE...
Power.Rangers.2017.German.AC...
Power.Rangers.2017.German.AC...
Power.Rangers.2017.GERMAN.DL...
Power.Rangers.2017.GERMAN.DL...

Neuerscheinungen 2016-17
Der.Eid.Ein.Island.Thriller....
Pet.2016.DUAL.COMPLETE.BLURA...
Rings.2017.MULTi.COMPLETE.BL...
Der.Eid.Ein.Island.Thriller....
Der.Eid.Ein.Island.Thriller....
Pet.Wenn.du.etwas.liebst.dan...
Pet.Wenn.du.etwas.liebst.dan...
Fences.German.2016.DL.BluRay...
Fences.German.2016.DL.BluRay...
Der.schwarze.Nazi.2016.Germa...

XXX
WhenGirlsPlay.17.06.20.Krist...
MetArtX.17.06.20.Sarah.Kay.M...
RileyVega.16.08.15.Smoke.Wit...
FAKings.17.06.07.Montse.SPAN...
RileyVega.16.11.02.Perv.Cam....
RileyVega.16.10.07.Skeleton....
HardX.17.06.20.Alexis.Fawx.M...
SlimeWave.17.06.19.Lolly.Lol...
FAKings.17.06.12.Iris.SPANIS...
Nubiles.17.06.20.Adella.Tiny...
YoungCourtesans.17.06.17.Ang...
Holed.17.06.20.Lexi.Lovell.A...
X-Art.17.06.20.Summer.And.Sy...
WildOnCam.15.10.14.Karlie.Mo...
TheLifeErotic.17.06.20.Lady....
PornFidelity.17.06.20.Alexis...
PublicAgent.17.06.20.Apoloni...
Penthouse.16.05.04.Angela.So...
WildOnCam.15.10.19.Holly.Hea...
TeenDreams.17.06.20.Taylor.X...

3D
Die.irre.Heldentour.des.Bill...
Die.Bestimmung.Insurgent.3D....
Die.Bestimmung.Insurgent.3D....
The.Great.Wall.3D.2016.multi...
San.Andreas.3D.2015.German.D...
Mojin.The.Lost.Legend.3D.201...
The.LEGO.Batman.Movie.3D.201...
The.LEGO.Batman.Movie.2017.3...
The.LEGO.Batman.Movie.2017.3...
Kraftwerk.3D.12345678.2016.2...
Die.irre.Heldentour.des.Bill...
Die.irre.Heldentour.des.Bill...
L.A.Outlaws.Die.Gesetzlosen....
L.A.Outlaws.Die.Gesetzlosen....
Abenteuer.Everglades.3D.Die....

Old_Stuff
P.O.E.-.Project.of.Evil.UNCU...
Fields.of.the.Dead.3D.2014.D...
Feuerwerk.am.helllichten.Tag...
Pitch.Perfect.2012.German.DT...
Das.A-Team.S05.German.DUBBED...
Das.A-Team.S05.German.DUBBED...
House.Rules.for.Bad.Girls.3D...
Return.To.Nuke.Em.High.Volum...
Dragons.of.Camelot.2014.DUAL...
Amy.Sie.oeffnet.das.Tor.zur....
13.Eerie.We.Prey.For.You.UNC...
Codename.U.N.C.L.E.2015.MULT...
Halloween.Resurrection.2002....
Halloween.Resurrection.GERMA...
Om.Shanti.Om.2007.COMPLETE.B...

Musik
The.Beatles.Sgt.Peppers.Lone...
The.Prometheus.Dolby.Atmos.E...
R.E.M.OUT.OF.TIME.25th.Anniv...
The.Rolling.Stones.GRRR.BR-A...
Mussorgsky.Bilder.einer.Auss...
Yes.-.The.Yes.Album.Bluray-A...
Carlos.Heredia.Gypsy.Flamenc...
SPES.2014.complete.Bluray.un...
Carlos.Santana.Collection.19...
Pink.Floyd.The.Endless.River...
The.Hyperion.Romantic.Piano....
Putumayo.113.CD.Flac.lossles...

Filme
Der.Uranberg.2010.German.720...
Gelb.ist.nicht.nur.die.Farbe...
Aldnoah.Zero.S01.German.2014...
Enemmy.2013.German.1080p.HDT...
Enemmy.2013.German.720p.HDTV...
Die.Schwalbe.2016.German.720...
Guardian.of.the.Spirit.DiSC....
Fortitude.S02.COMPLETE.Germa...
Fortitude.S02.COMPLETE.Germa...
Silicon.Valley.S04.GERMAN.DU...
Silicon.Valley.S04.GERMAN.DU...
Better.Call.Saul.S03.COMPLET...
Better.Call.Saul.S03.COMPLET...
The.Blacklist.S04.GERMAN.DUB...
The.Blacklist.S04.GERMAN.DUB...
American.Gods.S01.COMPLETE.G...
American.Gods.S01.COMPLETE.G...
Chicago.Fire.S05.GERMAN.Dubb...
Die.Schoene.und.das.Biest.20...
Die.Schoene.und.das.Biest.20...
The.Strain.S03.COMPLETE.Germ...
Legends.of.Tomorrow.S02.GERM...
Legends.of.Tomorrow.S02.GERM...
Die.Todesfaust.des.Cheng.Li....

 
 
El.Chapo.S01.COMPLETE.German.1080p.WebHD.x264-AIDA
Jahr: 2017
Genre: Drama
Sprache: Deutsch AC3
Laufzeit: 55min je Folge
Bitrate: 6600 Kbps
Format: MKV
Größe: 2,7 GB je Folge
Release:

Beschreibung:

Joaquin Guzman (Marco de la O) soll eines Tages als El Chapo zu einem der gefürchteten Drogenbosse aller Zeiten werden. Bevor es jedoch so weit ist, fängt seine Geschichte im Mexiko des Jahres 1985 an, wo er als Handlanger für das Guadalajara-Kartell tätig ist und erste Erfahrungen im illegalen Metier des Drogenschmuggels sammelt. Aus dieser Erfahrung heraus gründet er schon bald sein eigenes Imperium.



General
Complete name                            : El.Chapo.S01E01.German.1080p.WebHD.x264-AIDA\el.chapo.s01e01.german.1080p.webhd.x264-aida.mkv
Format                                   : Matroska
Format version                           : Version 2
File size                                : 2.74 GiB
Duration                                 : 54mn 43s
Overall bit rate                         : 7 165 Kbps
Writing application                      : mkvmerge v6.6.0 ('The Edge Of The In Between') built on Dec 1 2013 17:55:00
Writing library                          : libebml v1.3.0 + libmatroska v1.4.1

Video
ID                                       : 1
Format                                   : AVC
Format/Info                              : Advanced Video Codec
Format profile                           : [email protected]
Format settings, CABAC                   : Yes
Format settings, ReFrames                : 4 frames
Codec ID                                 : V_MPEG4/ISO/AVC
Duration                                 : 54mn 43s
Bit rate                                 : 6 638 Kbps
Width                                    : 1 920 pixels
Height                                   : 1 016 pixels
Display aspect ratio                     : 1.890
Frame rate mode                          : Constant
Frame rate                               : 23.976 fps
Color space                              : YUV
Chroma subsampling                       : 4:2:0
Bit depth                                : 8 bits
Scan type                                : Progressive
Bits/(Pixel*Frame)                       : 0.142
Stream size                              : 2.54 GiB (93%)
Writing library                          : x264 core 150 r2829 d1fe6fd
Encoding settings                        : cabac=1 / ref=4 / deblock=1:-3:-3 / analyse=0x3:0x133 / me=umh / subme=8 / psy=1 / psy_rd=1.00:0.15 / mixed_ref=1 / me_range=16 / chroma_me=1 / trellis=1 / 8x8dct=1 / cqm=0 / deadzone=21,11 / fast_pskip=0 / chroma_qp_offset=-3 / threads=12 / lookahead_threads=2 / sliced_threads=0 / nr=0 / decimate=1 / interlaced=0 / bluray_compat=0 / constrained_intra=0 / bframes=3 / b_pyramid=2 / b_adapt=2 / b_bias=0 / direct=3 / weightb=1 / open_gop=0 / weightp=2 / keyint=240 / keyint_min=24 / scenecut=40 / intra_refresh=0 / rc_lookahead=50 / rc=crf / mbtree=1 / crf=19.0 / qcomp=0.60 / qpmin=0 / qpmax=69 / qpstep=4 / ip_ratio=1.40 / aq=1:1.00
Language                                 : English
Default                                  : Yes
Forced                                   : No

Audio
ID                                       : 2
Format                                   : AC-3
Format/Info                              : Audio Coding 3
Mode extension                           : CM (complete main)
Format settings, Endianness              : Big
Codec ID                                 : A_AC3
Duration                                 : 54mn 43s
Bit rate mode                            : Constant
Bit rate                                 : 384 Kbps
Channel(s)                               : 6 channels
Channel positions                        : Front: L C R, Side: L R, LFE
Sampling rate                            : 48.0 KHz
Bit depth                                : 16 bits
Compression mode                         : Lossy
Stream size                              : 150 MiB (5%)
Language                                 : German
Default                                  : Yes
Forced                                   : No



Download:
Share-Online.biz Share-Online.bizShare-Online.bizShare-Online.biz | Uploaded.net Uploaded.netUploaded.netUploaded.net
 

Kommentare