Clean Bandit - Rockabye (feat. Sean Paul & Anne-Marie) | English For Children Songs And Funny Clip Mp3 | Zufällige Episode
 


 




Wir sind wenn hd-area.org mal ausfällt unter hd-area.biz erreichbar


Hier klickenfür Informationen zur Umgehung staatlicher Zensurmaßnahmen




Filmwünsche können bei uns im Forum abgegeben werden

Wir Speichern Nicht




 
 
 
Top Releases
The.Editor.2014.DUAL.COMPLET...
Hell.or.High.Water.2016.DUAL...
Hell.or.High.Water.2016.Germ...
Hell.or.High.Water.2016.Germ...
The.Editor.2014.German.720p....
The.Editor.2014.German.DL.10...
Personal.Shopper.German.DL.1...
Fences.2016.German.DL.1080p....
Den.Sternen.so.nah.2017.Germ...
Florence.Foster.Jenkins.2016...

Cinedubs
Die.Schluempfe.Das.verlorene...
Die.Schluempfe.Das.verlorene...
Kong.Skull.Island.2017.Germa...
Kong.Skull.Island.2017.Germa...
Das.Belko.Experiment.2017.GE...
Das.Belko.Experiment.2017.GE...
Power.Rangers.2017.German.AC...
Power.Rangers.2017.German.AC...
Power.Rangers.2017.GERMAN.DL...
Power.Rangers.2017.GERMAN.DL...

Neuerscheinungen 2016-17
Der.Eid.Ein.Island.Thriller....
Pet.2016.DUAL.COMPLETE.BLURA...
Rings.2017.MULTi.COMPLETE.BL...
Der.Eid.Ein.Island.Thriller....
Der.Eid.Ein.Island.Thriller....
Pet.Wenn.du.etwas.liebst.dan...
Pet.Wenn.du.etwas.liebst.dan...
Fences.German.2016.DL.BluRay...
Fences.German.2016.DL.BluRay...
Der.schwarze.Nazi.2016.Germa...

XXX
MetArtX.17.06.20.Sarah.Kay.M...
RileyVega.16.08.15.Smoke.Wit...
FAKings.17.06.07.Montse.SPAN...
RileyVega.16.11.02.Perv.Cam....
RileyVega.16.10.07.Skeleton....
HardX.17.06.20.Alexis.Fawx.M...
SlimeWave.17.06.19.Lolly.Lol...
FAKings.17.06.12.Iris.SPANIS...
Nubiles.17.06.20.Adella.Tiny...
YoungCourtesans.17.06.17.Ang...
Holed.17.06.20.Lexi.Lovell.A...
X-Art.17.06.20.Summer.And.Sy...
WildOnCam.15.10.14.Karlie.Mo...
TheLifeErotic.17.06.20.Lady....
PornFidelity.17.06.20.Alexis...
PublicAgent.17.06.20.Apoloni...
Penthouse.16.05.04.Angela.So...
WildOnCam.15.10.19.Holly.Hea...
TeenDreams.17.06.20.Taylor.X...
WildOnCam.15.10.16.Mia.Austi...

3D
Die.irre.Heldentour.des.Bill...
Die.Bestimmung.Insurgent.3D....
Die.Bestimmung.Insurgent.3D....
The.Great.Wall.3D.2016.multi...
San.Andreas.3D.2015.German.D...
Mojin.The.Lost.Legend.3D.201...
The.LEGO.Batman.Movie.3D.201...
The.LEGO.Batman.Movie.2017.3...
The.LEGO.Batman.Movie.2017.3...
Kraftwerk.3D.12345678.2016.2...
Die.irre.Heldentour.des.Bill...
Die.irre.Heldentour.des.Bill...
L.A.Outlaws.Die.Gesetzlosen....
L.A.Outlaws.Die.Gesetzlosen....
Abenteuer.Everglades.3D.Die....

Old_Stuff
P.O.E.-.Project.of.Evil.UNCU...
Fields.of.the.Dead.3D.2014.D...
Feuerwerk.am.helllichten.Tag...
Pitch.Perfect.2012.German.DT...
Das.A-Team.S05.German.DUBBED...
Das.A-Team.S05.German.DUBBED...
House.Rules.for.Bad.Girls.3D...
Return.To.Nuke.Em.High.Volum...
Dragons.of.Camelot.2014.DUAL...
Amy.Sie.oeffnet.das.Tor.zur....
13.Eerie.We.Prey.For.You.UNC...
Codename.U.N.C.L.E.2015.MULT...
Halloween.Resurrection.2002....
Halloween.Resurrection.GERMA...
Om.Shanti.Om.2007.COMPLETE.B...

Musik
The.Beatles.Sgt.Peppers.Lone...
The.Prometheus.Dolby.Atmos.E...
R.E.M.OUT.OF.TIME.25th.Anniv...
The.Rolling.Stones.GRRR.BR-A...
Mussorgsky.Bilder.einer.Auss...
Yes.-.The.Yes.Album.Bluray-A...
Carlos.Heredia.Gypsy.Flamenc...
SPES.2014.complete.Bluray.un...
Carlos.Santana.Collection.19...
Pink.Floyd.The.Endless.River...
The.Hyperion.Romantic.Piano....
Putumayo.113.CD.Flac.lossles...

Filme
Der.Uranberg.2010.German.720...
Gelb.ist.nicht.nur.die.Farbe...
Aldnoah.Zero.S01.German.2014...
Enemmy.2013.German.1080p.HDT...
Enemmy.2013.German.720p.HDTV...
Die.Schwalbe.2016.German.720...
Guardian.of.the.Spirit.DiSC....
Fortitude.S02.COMPLETE.Germa...
Fortitude.S02.COMPLETE.Germa...
Silicon.Valley.S04.GERMAN.DU...
Silicon.Valley.S04.GERMAN.DU...
Better.Call.Saul.S03.COMPLET...
Better.Call.Saul.S03.COMPLET...
The.Blacklist.S04.GERMAN.DUB...
The.Blacklist.S04.GERMAN.DUB...
American.Gods.S01.COMPLETE.G...
American.Gods.S01.COMPLETE.G...
Chicago.Fire.S05.GERMAN.Dubb...
Die.Schoene.und.das.Biest.20...
Die.Schoene.und.das.Biest.20...
The.Strain.S03.COMPLETE.Germ...
Legends.of.Tomorrow.S02.GERM...
Legends.of.Tomorrow.S02.GERM...
Die.Todesfaust.des.Cheng.Li....

 
 
The.LEGO.Batman.Movie.2017.3D.HSBS.German.DTS.DL.1080p.BluRay.x264-LeetHD
Jahr: 2017
Genre: Animation, Action, Adventure
Sprache: Deutsch DTS | Englisch DTS
Laufzeit: 1h 44mn
Bitrate: 9 103 Kbps
Format: MKV
Größe: 6.64 GiB
Release:

Beschreibung:

Augenzwinkernde Respektlosigkeit hat ‘The LEGO Movie’ zu seinem weltweiten Erfolg verholfen – kein Wunder also, dass die selbsternannte Hauptfigur jenes Ensembles – LEGO Batman – jetzt die Hauptrolle in einem eigenen Leinwandabenteuer übernimmt. Doch in ‘Gotham’ stehen weitreichende Veränderungen bevor, und wenn Batman verhindern will, dass der Joker sich die Stadt durch eine feindliche Übernahme einverleibt, muss er vielleicht endlich einmal sein Image vom einsamen Rächer revidieren und die Unterstützung anderer annehmen. Außerdem könnte es ihm auch nicht schaden, wenn er alles etwas lockerer sehen würde.



General
Unique ID                                : 241156378930279124596615091667544639295 (0xB56D07761FCA57D7AFE17CFE2D9D073F)
Complete name                            : lhd-legobatman.hsbs-1080.mkv
Format                                   : Matroska
Format version                           : Version 4 / Version 2
File size                                : 6.64 GiB
Duration                                 : 1h 44mn
Overall bit rate                         : 9 103 Kbps
Movie name                               : The Lego Batman Movie HSBS
Encoded date                             : UTC 2017-06-08 17:59:46
Writing application                      : mkvmerge v9.7.1 ('Pandemonium') 64bit
Writing library                          : libebml v1.3.4 + libmatroska v1.4.5
DURATION                                 : 01:40:50.336000000
NUMBER_OF_FRAMES                         : 12
NUMBER_OF_BYTES                          : 65703
_STATISTICS_WRITING_APP                  : mkvmerge v9.7.1 ('Pandemonium') 64bit
_STATISTICS_WRITING_DATE_UTC             : 2017-06-08 17:59:46
_STATISTICS_TAGS                         : BPS DURATION NUMBER_OF_FRAMES NUMBER_OF_BYTES

Video
ID                                       : 1
Format                                   : AVC
Format/Info                              : Advanced Video Codec
Format profile                           : [email protected]
MultiView_Count                          : 2
MultiView_Layout                         : Side by Side (left eye first)
Format settings, CABAC                   : Yes
Format settings, ReFrames                : 5 frames
Format settings, GOP                     : M=4, N=24
Codec ID                                 : V_MPEG4/ISO/AVC
Duration                                 : 1h 44mn
Bit rate                                 : 5 904 Kbps
Width                                    : 1 920 pixels
Height                                   : 800 pixels
Display aspect ratio                     : 16:9
Original display aspect ratio            : 2.40:1
Frame rate mode                          : Constant
Frame rate                               : 23.976 fps
Color space                              : YUV
Chroma subsampling                       : 4:2:0
Bit depth                                : 8 bits
Scan type                                : Progressive
Bits/(Pixel*Frame)                       : 0.160
Stream size                              : 4.31 GiB (65%)
Writing library                          : x264 core 148 r2744 b97ae06
Encoding settings                        : cabac=1 / ref=5 / deblock=1:0:0 / analyse=0x3:0x113 / me=hex / subme=8 / psy=1 / psy_rd=1.00:0.00 / mixed_ref=1 / me_range=16 / chroma_me=1 / trellis=2 / 8x8dct=1 / cqm=0 / deadzone=21,11 / fast_pskip=1 / chroma_qp_offset=-2 / threads=12 / lookahead_threads=2 / sliced_threads=0 / nr=0 / decimate=1 / interlaced=0 / bluray_compat=0 / constrained_intra=0 / bframes=3 / b_pyramid=2 / b_adapt=1 / b_bias=0 / direct=3 / weightb=1 / open_gop=0 / weightp=2 / keyint=250 / keyint_min=23 / scenecut=40 / intra_refresh=0 / rc_lookahead=50 / rc=crf / mbtree=1 / crf=18.0 / qcomp=0.60 / qpmin=0 / qpmax=69 / qpstep=4 / vbv_maxrate=62500 / vbv_bufsize=78125 / crf_max=0.0 / nal_hrd=none / filler=0 / frame-packing=3 / ip_ratio=1.40 / aq=1:1.00
Language                                 : German
Default                                  : Yes
Forced                                   : No
Matrix coefficients                      : BT.709

Audio #1
ID                                       : 2
Format                                   : DTS
Format/Info                              : Digital Theater Systems
Mode                                     : 16
Format settings, Endianness              : Big
Codec ID                                 : A_DTS
Duration                                 : 1h 44mn
Bit rate mode                            : Constant
Bit rate                                 : 1 509 Kbps
Channel(s)                               : 6 channels
Channel positions                        : Front: L C R, Side: L R, LFE
Sampling rate                            : 48.0 KHz
Bit depth                                : 16 bits
Compression mode                         : Lossy
Stream size                              : 1.10 GiB (17%)
Language                                 : German
Default                                  : Yes
Forced                                   : No

Audio #2
ID                                       : 3
Format                                   : DTS
Format/Info                              : Digital Theater Systems
Mode                                     : 16
Format settings, Endianness              : Big
Codec ID                                 : A_DTS
Duration                                 : 1h 44mn
Bit rate mode                            : Constant
Bit rate                                 : 1 509 Kbps
Channel(s)                               : 6 channels
Channel positions                        : Front: L C R, Side: L R, LFE
Sampling rate                            : 48.0 KHz
Bit depth                                : 16 bits
Compression mode                         : Lossy
Stream size                              : 1.10 GiB (17%)
Language                                 : English
Default                                  : No
Forced                                   : No

Text
ID                                       : 4
Format                                   : PGS
Muxing mode                              : zlib
Codec ID                                 : S_HDMV/PGS
Codec ID/Info                            : The same subtitle format used on BDs/HD-DVDs
Title                                    : German forced 3D
Language                                 : German
Default                                  : Yes
Forced                                   : Yes


Download:
Share Online | Uploaded Share Online | UploadedShare Online | UploadedShare Online | Uploaded
 

Kommentare