Incorporated HDTV 720p AC3 5.1 | Already have an account? Click here to login! | Who Are You - School 2015
 


 




Wir sind wenn hd-area.org mal ausfällt unter hd-area.biz erreichbar


Hier klickenfür Informationen zur Umgehung staatlicher Zensurmaßnahmen




Filmwünsche können bei uns im Forum abgegeben werden

Wir Speichern Nicht




 
 
 
Top Releases
La.La.Land.2016.MULTi.COMPLE...
Jackie.Die.First.Lady.2016.G...
Die.irre.Heldentour.des.Bill...
Die.irre.Heldentour.des.Bill...
Jackie.Die.First.Lady.2016.G...
Die.irre.Heldentour.des.Bill...
Die.Irre.Heldentour.des.Bill...
The.Devils.Candy.2015.German...
Ghost.in.the.Shell.ARISE.Bor...
Die.Irre.Heldentour.des.Bill...

Cinedubs
Logan.-.The.Wolverine.NOIR.E...
Logan.-.The.Wolverine.German...
Logan.-.The.Wolverine.German...
Shin.Godzilla.German.MD.1080...
John.Wick.Kapitel.2.German.A...
John.Wick.Kapitel.2.German.A...
Shin.Godzilla.German.AC3MD.7...
Regeln.spielen.keine.Rolle.G...
Die.Schoene.und.das.Biest.Ge...
Regeln.spielen.keine.Rolle.G...

Neuerscheinungen 2016-17
Radio.Heimat.German.1080p.Bl...
Sex.And.Crime.2016.German.10...
Radio.Heimat.German.720p.Blu...
Night.of.Something.Strange.2...
Night.of.Something.Strange.2...
Die.Irre.Heldentour.des.Bill...
xXx.Die.Rueckkehr.des.Xander...
Jackie.Die.First.Lady.2016.G...
Trash.Fire.2016.MULTi.COMPLE...
Die.Irre.Heldentour.des.Bill...

XXX
Errotica-Archives.17.05.21.C...
AllOver30.17.05.18.Melody.Ga...
ExploitedCollegeGirls.17.05....
GirlsWay.17.05.19.Carter.Cru...
AussieFellatioQueens.E28.Aer...
AussieFellatioQueens.E11.Ann...
BumsBuero.17.05.21.Jacky.Law...
1By-Day.17.05.18.Nikky.Dream...
ATKGirlfriends.17.05.21.Yara...
BackroomFacials.17.05.18.Nat...
KimberLeeLive.17.05.12.Hidde...
AussieFellatioQueens.E01.Amy...
DigicreationsXXX.Arteya.Dani...
AussieFellatioQueens.E29.Aer...
LittleCapriceDreams.17.02.18...
DaughterSwap.17.05.19.Alexa....
InTheCrack.E1284.Joseline.Ke...
BoldlyGirls.17.05.18.Jade.An...
FakeAgentUK.17.05.20.Lola.Ra...
Killergram.17.05.20.Mariska....

3D
xXx.Die.Rueckkehr.des.Xander...
Night.Fare.3D.2015.DUAL.COMP...
Night.Fare.Bezahl.mit.deinem...
xXx.Die.Rueckkehr.des.Xande...
World.War.Z.3D.2013.German.D...
Die.Irre.Heldentour.des.Bill...
Machine.Wars.Planet.der.Robo...
The.Great.Wall.3D.2016.COMPL...
The.Great.Wall.3D.2016.Germa...
Zambezia.In.jedem.steckt.ein...
Passengers.3D.2016.German.DL...
Assassins.Creed.3D.2016.Germ...
Die.dunkle.Graefin.2015.3D.G...
Die.dunkle.Graefin.3D.2015.M...
Air.Speed.Fast.and.Ferocious...

Old_Stuff
Der.gestiefelte.Kater.2011.M...
Slither.Voll.auf.den.Schleim...
Shadowhunters.S01.German.DL....
The.Purge.Anarchy.2014.Germa...
Die.Sieben.Samurai.LANGFASSU...
Die.Sieben.Samurai.1954.LANG...
Bereavement.In.den.Haenden.d...
Drifter.Alle.Antworten.liege...
King.of.Queens.S06.DUAL.COMP...
Speed.2.Cruise.Control.1997....
Vamperifica.2011.German.DL.1...
The.Hobbit.The.Desolation.of...
Der.Hobbit.Eine.Unerwartete....
Das.Boese.I.Phantasm.I.1979....
Das.Boese.I.Phantasm.I.1979....

Musik
The.Prometheus.Dolby.Atmos.E...
R.E.M.OUT.OF.TIME.25th.Anniv...
The.Rolling.Stones.GRRR.BR-A...
Mussorgsky.Bilder.einer.Auss...
Yes.-.The.Yes.Album.Bluray-A...
Carlos.Heredia.Gypsy.Flamenc...
SPES.2014.complete.Bluray.un...
Carlos.Santana.Collection.19...
Pink.Floyd.The.Endless.River...
The.Hyperion.Romantic.Piano....
Putumayo.113.CD.Flac.lossles...
UFO – Let It Roll (Limited...

Filme
The.Flash.S03.GERMAN.DUBBED....
This.is.Us.S01.German.1080p....
Hostages.S02.German.DL.720p....
Twin.Peaks.S03.German.DL.DUB...
Twin.Peaks.S03.German.DL.DUB...
Z.Nation.S03.GERMAN.DUBBED.D...
Z.Nation.S03.GERMAN.DUBBED.D...
Supergirl.S02.GERMAN.DUBBED....
Supergirl.S02.GERMAN.DUBBED....
New.Girl.S05.German.DL.DUBBE...
New.Girl.S05.German.DL.DUBBE...
Designated.Survivor.S01.Germ...
Fargo.S03.German.DD51.DL.108...
Fargo.S03.German.DD51.DL.720...
Formel.1.Saison.2017.GERMAN....
The.Living.Corpse.Ein.Zombie...
K2.Das.letzte.Abenteuer.1991...
Der.Letzte.Mohikaner.1992.Ge...
Cannibal.2010.German.1080p.B...
Frankensteins.Monster.im.Kam...
L.I.S.A.Der.helle.Wahnsinn.1...
Ludwig.II.German.1080p.BluRa...
Mortal.Kombat.1995.German.DL...
Hudson.Hawk.Der.Meisterdieb....

 
 
Alexander.Revisited.The.Final.Cut.2004.German.DTSHD.DL.1080p.BluRay.x264-Pate
Jahr: 2004
Genre: Action, Adventure, Biography
Sprache: Deutsch DTS-HD | Englisch DTS-HD
Laufzeit: 3h 33mn
Bitrate: 13.7 Mbps
Format: MKV
Größe: 20.5 GiB
Release:

Beschreibung:

Oliver Stones Epos “Alexander” basiert auf der wahren Geschichte einer der strahlendsten und einflussreichsten Leitfiguren der Geschichte. Der Film zeichnet den Lebensweg Alexander des Großen (356 – 323 vor Christus) nach, wie er zur lebenden Legende wurde. Von seiner Jugend, in der ihn Träume von Ruhm und Abenteuer antrieben, über die starken Bindungen zu seinen engsten Vertrauten, bis hin zu seinem einsamen und mysteriösen Tod als Herrscher über ein riesiges Imperium. Mutig und ehrlich zeigt der Film Alexanders Leben und die Beziehungen zu seiner Mutter Olympias, seinem Vater Philipp, seinem Heeresführer Hephaistion, der ein Leben lang sein bester Freund blieb, zu Roxane, seiner ehrgeizigen und schönen Frau, und schließlich zu Ptolemaios, seinem zuverlässigen General und Vertrauten.

 

Alexander: Ein Mann, der mit 25 Jahren bereits 90 Prozent der damals bekannten Welt erobert hatte und in nur acht Jahren mit seinen nahezu unbesiegbaren Armeen eine Strecke von 35.000 Kilometern zurück legte. Als er mit 32 Jahren starb, hatte er durch seine Eroberungen ein Imperium geformt, das einzigartig blieb in der Weltgeschichte.



General
Unique ID                                : 173402515595051431775103696292812776238 (0x82741C16B7F693D8960803E533BD632E)
Complete name                            : pate-alexander.final.cut.1080p.mkv
Format                                   : Matroska
Format version                           : Version 2
File size                                : 20.5 GiB
Duration                                 : 3h 33mn
Overall bit rate                         : 13.7 Mbps
Encoded date                             : UTC 2017-05-19 20:41:38
Writing application                      : mkvmerge v3.4.0 ('Rapunzel') gebaut am May 15 2010 09:38:20
Writing library                          : libebml v0.8.0 + libmatroska v0.9.0

Video
ID                                       : 1
Format                                   : AVC
Format/Info                              : Advanced Video Codec
Format profile                           : [email protected]
Format settings, CABAC                   : Yes
Format settings, ReFrames                : 5 frames
Codec ID                                 : V_MPEG4/ISO/AVC
Duration                                 : 3h 33mn
Bit rate                                 : 9 369 Kbps
Width                                    : 1 920 pixels
Height                                   : 796 pixels
Display aspect ratio                     : 2.40:1
Frame rate mode                          : Constant
Frame rate                               : 23.976 fps
Color space                              : YUV
Chroma subsampling                       : 4:2:0
Bit depth                                : 8 bits
Scan type                                : Progressive
Bits/(Pixel*Frame)                       : 0.256
Stream size                              : 14.0 GiB (68%)
Title                                    : 1080p Pate
Writing library                          : x264 core 148 r2762 90a61ec
Encoding settings                        : cabac=1 / ref=5 / deblock=1:-3:-3 / analyse=0x3:0x113 / me=umh / subme=9 / psy=1 / psy_rd=1.10:0.00 / mixed_ref=1 / me_range=24 / chroma_me=1 / trellis=2 / 8x8dct=1 / cqm=0 / deadzone=21,11 / fast_pskip=0 / chroma_qp_offset=-2 / threads=12 / lookahead_threads=1 / sliced_threads=0 / nr=0 / decimate=1 / interlaced=0 / bluray_compat=0 / constrained_intra=0 / bframes=5 / b_pyramid=2 / b_adapt=1 / b_bias=0 / direct=3 / weightb=1 / open_gop=0 / weightp=2 / keyint=250 / keyint_min=23 / scenecut=40 / intra_refresh=0 / rc=crf / mbtree=0 / crf=17.0 / qcomp=0.60 / qpmin=14 / qpmax=69 / qpstep=4 / ip_ratio=1.40 / pb_ratio=1.30 / aq=1:1.00
Language                                 : English
Default                                  : Yes
Forced                                   : Yes

Audio #1
ID                                       : 2
Format                                   : DTS
Format/Info                              : Digital Theater Systems
Format profile                           : HRA / Core
Mode                                     : 16
Format settings, Endianness              : Big
Codec ID                                 : A_DTS
Duration                                 : 3h 33mn
Bit rate mode                            : Constant
Bit rate                                 : 2 046 Kbps / 1 509 Kbps
Channel(s)                               : 6 channels
Channel positions                        : Front: L C R, Side: L R, LFE
Sampling rate                            : 48.0 KHz
Bit depth                                : 16 bits / 24 bits
Compression mode                         : Lossy
Stream size                              : 3.05 GiB (15%)
Language                                 : German
Default                                  : Yes
Forced                                   : Yes

Audio #2
ID                                       : 3
Format                                   : DTS
Format/Info                              : Digital Theater Systems
Format profile                           : HRA / Core
Mode                                     : 16
Format settings, Endianness              : Big
Codec ID                                 : A_DTS
Duration                                 : 3h 33mn
Bit rate mode                            : Constant
Bit rate                                 : 2 046 Kbps / 1 509 Kbps
Channel(s)                               : 6 channels
Channel positions                        : Front: L C R, Side: L R, LFE
Sampling rate                            : 48.0 KHz
Bit depth                                : 16 bits / 24 bits
Compression mode                         : Lossy
Stream size                              : 3.05 GiB (15%)
Language                                 : English
Default                                  : No
Forced                                   : No

Text #1
ID                                       : 4
Format                                   : UTF-8
Codec ID                                 : S_TEXT/UTF8
Codec ID/Info                            : UTF-8 Plain Text
Title                                    : forced
Language                                 : German
Default                                  : Yes
Forced                                   : Yes

Text #2
ID                                       : 5
Format                                   : VobSub
Muxing mode                              : zlib
Codec ID                                 : S_VOBSUB
Codec ID/Info                            : The same subtitle format used on DVDs
Language                                 : German
Default                                  : No
Forced                                   : No


Download:
Share Online | Uploaded Share Online | UploadedShare Online | UploadedShare Online | Uploaded
 

Kommentare