Documentaires | TELECHARGER Film Logan streaming gratuits | 3-04-17 |Фиксики [S01-03x001-123 + 17 Фиксипелок] (2010-2017) DVDRip от New-Team | лицензия0 11.65 GB 776 1002
 


 




Wir sind wenn hd-area.org mal ausfällt unter hd-area.biz erreichbar


Hier klickenfür Informationen zur Umgehung staatlicher Zensurmaßnahmen




Filmwünsche können bei uns im Forum abgegeben werden

Wir Speichern Nicht




 
 
 
Top Releases
La.La.Land.2016.MULTi.COMPLE...
Jackie.Die.First.Lady.2016.G...
Die.irre.Heldentour.des.Bill...
Die.irre.Heldentour.des.Bill...
Jackie.Die.First.Lady.2016.G...
Die.irre.Heldentour.des.Bill...
Die.Irre.Heldentour.des.Bill...
The.Devils.Candy.2015.German...
Ghost.in.the.Shell.ARISE.Bor...
Die.Irre.Heldentour.des.Bill...

Cinedubs
Logan.-.The.Wolverine.NOIR.E...
Logan.-.The.Wolverine.German...
Logan.-.The.Wolverine.German...
Shin.Godzilla.German.MD.1080...
John.Wick.Kapitel.2.German.A...
John.Wick.Kapitel.2.German.A...
Shin.Godzilla.German.AC3MD.7...
Regeln.spielen.keine.Rolle.G...
Die.Schoene.und.das.Biest.Ge...
Regeln.spielen.keine.Rolle.G...

Neuerscheinungen 2016-17
Radio.Heimat.German.1080p.Bl...
Sex.And.Crime.2016.German.10...
Radio.Heimat.German.720p.Blu...
Night.of.Something.Strange.2...
Night.of.Something.Strange.2...
Die.Irre.Heldentour.des.Bill...
xXx.Die.Rueckkehr.des.Xander...
Jackie.Die.First.Lady.2016.G...
Trash.Fire.2016.MULTi.COMPLE...
Die.Irre.Heldentour.des.Bill...

XXX
Errotica-Archives.17.05.21.C...
AllOver30.17.05.18.Melody.Ga...
ExploitedCollegeGirls.17.05....
GirlsWay.17.05.19.Carter.Cru...
AussieFellatioQueens.E28.Aer...
AussieFellatioQueens.E11.Ann...
BumsBuero.17.05.21.Jacky.Law...
1By-Day.17.05.18.Nikky.Dream...
ATKGirlfriends.17.05.21.Yara...
BackroomFacials.17.05.18.Nat...
KimberLeeLive.17.05.12.Hidde...
AussieFellatioQueens.E01.Amy...
DigicreationsXXX.Arteya.Dani...
AussieFellatioQueens.E29.Aer...
LittleCapriceDreams.17.02.18...
DaughterSwap.17.05.19.Alexa....
InTheCrack.E1284.Joseline.Ke...
BoldlyGirls.17.05.18.Jade.An...
FakeAgentUK.17.05.20.Lola.Ra...
Killergram.17.05.20.Mariska....

3D
xXx.Die.Rueckkehr.des.Xander...
Night.Fare.3D.2015.DUAL.COMP...
Night.Fare.Bezahl.mit.deinem...
xXx.Die.Rueckkehr.des.Xande...
World.War.Z.3D.2013.German.D...
Die.Irre.Heldentour.des.Bill...
Machine.Wars.Planet.der.Robo...
The.Great.Wall.3D.2016.COMPL...
The.Great.Wall.3D.2016.Germa...
Zambezia.In.jedem.steckt.ein...
Passengers.3D.2016.German.DL...
Assassins.Creed.3D.2016.Germ...
Die.dunkle.Graefin.2015.3D.G...
Die.dunkle.Graefin.3D.2015.M...
Air.Speed.Fast.and.Ferocious...

Old_Stuff
Der.gestiefelte.Kater.2011.M...
Slither.Voll.auf.den.Schleim...
Shadowhunters.S01.German.DL....
The.Purge.Anarchy.2014.Germa...
Die.Sieben.Samurai.LANGFASSU...
Die.Sieben.Samurai.1954.LANG...
Bereavement.In.den.Haenden.d...
Drifter.Alle.Antworten.liege...
King.of.Queens.S06.DUAL.COMP...
Speed.2.Cruise.Control.1997....
Vamperifica.2011.German.DL.1...
The.Hobbit.The.Desolation.of...
Der.Hobbit.Eine.Unerwartete....
Das.Boese.I.Phantasm.I.1979....
Das.Boese.I.Phantasm.I.1979....

Musik
The.Prometheus.Dolby.Atmos.E...
R.E.M.OUT.OF.TIME.25th.Anniv...
The.Rolling.Stones.GRRR.BR-A...
Mussorgsky.Bilder.einer.Auss...
Yes.-.The.Yes.Album.Bluray-A...
Carlos.Heredia.Gypsy.Flamenc...
SPES.2014.complete.Bluray.un...
Carlos.Santana.Collection.19...
Pink.Floyd.The.Endless.River...
The.Hyperion.Romantic.Piano....
Putumayo.113.CD.Flac.lossles...
UFO – Let It Roll (Limited...

Filme
The.Flash.S03.GERMAN.DUBBED....
This.is.Us.S01.German.1080p....
Hostages.S02.German.DL.720p....
Twin.Peaks.S03.German.DL.DUB...
Twin.Peaks.S03.German.DL.DUB...
Z.Nation.S03.GERMAN.DUBBED.D...
Z.Nation.S03.GERMAN.DUBBED.D...
Supergirl.S02.GERMAN.DUBBED....
Supergirl.S02.GERMAN.DUBBED....
New.Girl.S05.German.DL.DUBBE...
New.Girl.S05.German.DL.DUBBE...
Designated.Survivor.S01.Germ...
Fargo.S03.German.DD51.DL.108...
Fargo.S03.German.DD51.DL.720...
Formel.1.Saison.2017.GERMAN....
The.Living.Corpse.Ein.Zombie...
K2.Das.letzte.Abenteuer.1991...
Der.Letzte.Mohikaner.1992.Ge...
Cannibal.2010.German.1080p.B...
Frankensteins.Monster.im.Kam...
L.I.S.A.Der.helle.Wahnsinn.1...
Ludwig.II.German.1080p.BluRa...
Mortal.Kombat.1995.German.DL...
Hudson.Hawk.Der.Meisterdieb....

 
 
Voice.from.the.Stone.2017.1080p.BluRay.x264-ROVERS
Jahr: 2017
Genre: Drama, Mystery, Thriller
Sprache: Englisch DTS
Laufzeit: 1h 30mn
Bitrate: 10.4 Mbps
Format: MKV
Größe: 6.56 GiB
Release:

Beschreibung:

Die junge und engagierte Krankenschwester Verena (Emilia Clarke) übernimmt eine neue Stelle in der italienischen Toskana der 1950er-Jahre. Ihr neuer Patient Jakob (Edward Dring) wartet innerhalb altehrwürdiger Gemäuer auf einem weitläufigen Anwesen auf sie. Der kleine Junge hat ein traumatisches Erlebnis zu verkraften - er musste den Tod seiner Mutter mitansehen und hat außerdem schreckliche Dinge gehört... Seit dieser Vorkommnisse hat er kein einziges Wort mehr gesprochen. Sein Vater Klaus (Marton Csokas) glaubt jedoch, dass Jakob eine Stimme wahrnimmt und dass diese von der Mutter stammen könnte. Während Verena noch damit beschäftigt ist, auf den Jungen aufzupassen, gelangen immer mehr dunkle Geheimnisse ans Licht. Schon bald muss Verena feststellen, dass Jakob sich nichts zusammenspinnt – die Stimme existiert wirklich...



General
Unique ID                                : 224084328534685578842520985222118454392 (0xA89512640F371D92AA61E53F8AC13478)
Complete name                            : voicefromstone_eng.mkv
Format                                   : Matroska
Format version                           : Version 4 / Version 2
File size                                : 6.56 GiB
Duration                                 : 1h 30mn
Overall bit rate                         : 10.4 Mbps
Encoded date                             : UTC 2017-05-19 02:50:36
Writing application                      : mkvmerge v8.3.0 ('Over the Horizon') 64bit
Writing library                          : libebml v1.3.1 + libmatroska v1.4.2
DURATION                                 : 01:30:15.403000000
NUMBER_OF_FRAMES                         : 507694
NUMBER_OF_BYTES                          : 1021480328
_STATISTICS_WRITING_APP                  : mkvmerge v8.3.0 ('Over the Horizon') 64bit
_STATISTICS_WRITING_DATE_UTC             : 2017-05-19 02:50:36
_STATISTICS_TAGS                         : BPS DURATION NUMBER_OF_FRAMES NUMBER_OF_BYTES

Video
ID                                       : 1
Format                                   : AVC
Format/Info                              : Advanced Video Codec
Format profile                           : [email protected]
Format settings, CABAC                   : Yes
Format settings, ReFrames                : 5 frames
Codec ID                                 : V_MPEG4/ISO/AVC
Duration                                 : 1h 30mn
Bit rate                                 : 8 885 Kbps
Width                                    : 1 920 pixels
Height                                   : 808 pixels
Display aspect ratio                     : 2.40:1
Frame rate mode                          : Constant
Frame rate                               : 23.976 fps
Color space                              : YUV
Chroma subsampling                       : 4:2:0
Bit depth                                : 8 bits
Scan type                                : Progressive
Bits/(Pixel*Frame)                       : 0.239
Stream size                              : 5.47 GiB (83%)
Writing library                          : x264 core 148 r2744 b97ae06
Encoding settings                        : cabac=1 / ref=5 / deblock=1:0:0 / analyse=0x3:0x133 / me=umh / subme=7 / psy=1 / psy_rd=1.00:0.00 / mixed_ref=1 / me_range=16 / chroma_me=1 / trellis=1 / 8x8dct=1 / cqm=0 / deadzone=21,11 / fast_pskip=0 / chroma_qp_offset=-2 / threads=24 / lookahead_threads=4 / sliced_threads=0 / nr=0 / decimate=1 / interlaced=0 / bluray_compat=0 / constrained_intra=0 / bframes=3 / b_pyramid=2 / b_adapt=1 / b_bias=0 / direct=1 / weightb=1 / open_gop=0 / weightp=2 / keyint=250 / keyint_min=23 / scenecut=40 / intra_refresh=0 / rc_lookahead=40 / rc=2pass / mbtree=1 / bitrate=8885 / ratetol=1.0 / qcomp=0.60 / qpmin=0 / qpmax=69 / qpstep=4 / cplxblur=20.0 / qblur=0.5 / ip_ratio=1.40 / aq=1:1.00
Language                                 : English
Default                                  : Yes
Forced                                   : No
DURATION                                 : 01:30:19.423000000
NUMBER_OF_FRAMES                         : 129936
NUMBER_OF_BYTES                          : 6015325513
_STATISTICS_WRITING_APP                  : mkvmerge v8.3.0 ('Over the Horizon') 64bit
_STATISTICS_WRITING_DATE_UTC             : 2017-05-19 02:50:36
_STATISTICS_TAGS                         : BPS DURATION NUMBER_OF_FRAMES NUMBER_OF_BYTES

Audio
ID                                       : 2
Format                                   : DTS
Format/Info                              : Digital Theater Systems
Mode                                     : 16
Format settings, Endianness              : Big
Codec ID                                 : A_DTS
Duration                                 : 1h 30mn
Bit rate mode                            : Constant
Bit rate                                 : 1 509 Kbps
Channel(s)                               : 6 channels
Channel positions                        : Front: L C R, Side: L R, LFE
Sampling rate                            : 48.0 KHz
Bit depth                                : 24 bits
Compression mode                         : Lossy
Stream size                              : 975 MiB (15%)
Language                                 : English
Default                                  : Yes
Forced                                   : No


Download:
Share Online | Uploaded Share Online | UploadedShare Online | UploadedShare Online | Uploaded
 

Kommentare