Need For Speed: Most Wanted – Criterion | -SBK Generations [MULTI5]: | [BigWetButts] Bella Bellz (Bring On Bella - 26 05 2017) rq (2k) mp4
 


 




Wir sind wenn hd-area.org mal ausfällt unter hd-area.biz erreichbar


Hier klickenfür Informationen zur Umgehung staatlicher Zensurmaßnahmen




Filmwünsche können bei uns im Forum abgegeben werden

Wir Speichern Nicht




 
 
 
Top Releases
T2.Trainspotting.German.DL.....
T2.Trainspotting.German.DL.7...
La.La.Land.2016.MULTi.COMPLE...
Jackie.Die.First.Lady.2016.G...
Die.irre.Heldentour.des.Bill...
Die.irre.Heldentour.des.Bill...
Jackie.Die.First.Lady.2016.G...
Die.irre.Heldentour.des.Bill...
Die.Irre.Heldentour.des.Bill...
The.Devils.Candy.2015.German...

Cinedubs
The.LEGO.Batman.Movie.German...
The.LEGO.Batman.Movie.German...
Logan.-.The.Wolverine.NOIR.E...
Logan.-.The.Wolverine.German...
Logan.-.The.Wolverine.German...
Shin.Godzilla.German.MD.1080...
John.Wick.Kapitel.2.German.A...
John.Wick.Kapitel.2.German.A...
Shin.Godzilla.German.AC3MD.7...
Regeln.spielen.keine.Rolle.G...

Neuerscheinungen 2016-17
Heimliche.Blicke.OVA.2013.DU...
Radio.Heimat.German.1080p.Bl...
Sex.And.Crime.2016.German.10...
Radio.Heimat.German.720p.Blu...
Night.of.Something.Strange.2...
Night.of.Something.Strange.2...
Die.Irre.Heldentour.des.Bill...
xXx.Die.Rueckkehr.des.Xander...
Jackie.Die.First.Lady.2016.G...
Trash.Fire.2016.MULTi.COMPLE...

XXX
TwistysHard.17.05.21.Adria.R...
AussieFellatioQueens.E35.Ril...
AussieFellatioQueens.E34.Ril...
AussieFellatioQueens.E32.Ann...
WetAndPuffy.17.05.19.Jimena....
UpHerAsshole.17.05.18.Candic...
AussieFellatioQueens.E33.Amy...
JulesJordan.17.05.22.Bailey....
Black.Street.Hookers.100.XXX...
NaughtyOffice.17.05.22.Carte...
Penthouse.16.06.12.Brooklyn....
MontysPOV.17.05.19.Emma.Loui...
AngelaWhite.15.05.04.Angela....
AllOver30.17.05.22.Sage.Ques...
NewSensations.17.05.22.Madis...
AussieFellatioQueens.E37.Dan...
Penthouse.16.06.18.Evelyn.Li...
Penthouse.16.06.13.Nicole.An...
QuestForOrgasm.17.05.22.Chri...
PlayboyPlus.17.05.22.Veronik...

3D
xXx.Die.Rueckkehr.des.Xander...
Night.Fare.3D.2015.DUAL.COMP...
Night.Fare.Bezahl.mit.deinem...
xXx.Die.Rueckkehr.des.Xande...
World.War.Z.3D.2013.German.D...
Die.Irre.Heldentour.des.Bill...
Machine.Wars.Planet.der.Robo...
The.Great.Wall.3D.2016.COMPL...
The.Great.Wall.3D.2016.Germa...
Zambezia.In.jedem.steckt.ein...
Passengers.3D.2016.German.DL...
Assassins.Creed.3D.2016.Germ...
Die.dunkle.Graefin.2015.3D.G...
Die.dunkle.Graefin.3D.2015.M...
Air.Speed.Fast.and.Ferocious...

Old_Stuff
Der.gestiefelte.Kater.2011.M...
Slither.Voll.auf.den.Schleim...
Shadowhunters.S01.German.DL....
The.Purge.Anarchy.2014.Germa...
Die.Sieben.Samurai.LANGFASSU...
Die.Sieben.Samurai.1954.LANG...
Bereavement.In.den.Haenden.d...
Drifter.Alle.Antworten.liege...
King.of.Queens.S06.DUAL.COMP...
Speed.2.Cruise.Control.1997....
Vamperifica.2011.German.DL.1...
The.Hobbit.The.Desolation.of...
Der.Hobbit.Eine.Unerwartete....
Das.Boese.I.Phantasm.I.1979....
Das.Boese.I.Phantasm.I.1979....

Musik
The.Prometheus.Dolby.Atmos.E...
R.E.M.OUT.OF.TIME.25th.Anniv...
The.Rolling.Stones.GRRR.BR-A...
Mussorgsky.Bilder.einer.Auss...
Yes.-.The.Yes.Album.Bluray-A...
Carlos.Heredia.Gypsy.Flamenc...
SPES.2014.complete.Bluray.un...
Carlos.Santana.Collection.19...
Pink.Floyd.The.Endless.River...
The.Hyperion.Romantic.Piano....
Putumayo.113.CD.Flac.lossles...
UFO – Let It Roll (Limited...

Filme
Zum.Teufel.mit.den.Millionen...
20.Minutes.The.Power.of.Few....
Unterwegs.mit.Evie.2006.Germ...
Sensoria.2015.German.1080p.B...
Sensoria.2015.German.720p.Bl...
Unter.Bauern.Retter.in.der.N...
Das.Geheimnis.des.verborgene...
The.Tunnel.S01-S02.Complete....
Joint.Security.Area.2000.Ger...
Die.drei.Fragezeichen.Das.Ge...
Southpaw.2015.German.DL.1080...
Southpaw.2015.German.DL.1080...
Southpaw.2015.German.DTS.DL....
Vidocq.German.DL.2001.1080p....
Hackers.1995.1080p.GERMAN.DU...
Hooligans.2005.German.DTS.DL...
Schatz.du.strahlst.ja.so.198...
Der.Polarexpress.2004.German...
Helden.1958.German.1080p.Blu...
Helden.1958.German.720p.BluR...
Werner.-.Volles.Roor.-.1999....
Erbarmungslos.1992.4K.Remast...
American.Crime.Story.S01.COM...
Saboteure.im.Eis.Operation.S...

 
 
Der.Englaender.der.auf.einen.Huegel.stieg.und.von.einem.Berg.herunterkam.1995.GERMAN.AC3D.DL.1080p.BluRay.x264-iNFOTv
Jahr: 1995
Genre: Komödie, Drama
Sprache: Deutsch AC3 | Englisch AC3
Laufzeit: 1h 32mn
Bitrate: 9 430 Kbps
Format: MKV
Größe: 6.08 GiB
Release:

Beschreibung:

Aufruhr im idyllischen Ffynnon Garw: Landvermesser Reginald Anson (Hugh Grant) hat soeben festgestellt, dass der ganze Stolz des Dorfes, der einzige Berg von Wales, gar keiner ist, sondern nur ein schnöder Hügel! Das können sich die schrulligen Einwohner, gerade noch spinnefeind untereinander, natürlich nicht bieten lassen. Während sie in einer gewaltigen Kraftanstrengung Erde herbeischleppen, um die fehlenden fünf Meter oben draufzusetzen, bietet die schöne Betty (Tara Fitzgerald) alle ihre Reize auf, um Anson an der Abreise zu hindern…



Unique ID                                : 255111318150023306670591203723148105189 (0xBFECA715E3229B11828D41A67E1995E5)
Complete name                            : infotv-derenglaender.1080p.mkv
Format                                   : Matroska
Format version                           : Version 4 / Version 2
File size                                : 6.08 GiB
Duration                                 : 1h 32mn
Overall bit rate                         : 9 430 Kbps
Encoded date                             : UTC 2013-05-27 13:36:12
Writing application                      : mkvmerge v6.2.0 ('Promised Land') built on Apr 28 2013 12:22:01
Writing library                          : libebml v1.3.0 + libmatroska v1.4.0

Video
ID                                       : 1
Format                                   : AVC
Format/Info                              : Advanced Video Codec
Format profile                           : [email protected]
Format settings, CABAC                   : Yes
Format settings, ReFrames                : 5 frames
Codec ID                                 : V_MPEG4/ISO/AVC
Duration                                 : 1h 32mn
Bit rate                                 : 8 256 Kbps
Width                                    : 1 920 pixels
Height                                   : 816 pixels
Display aspect ratio                     : 2.35:1
Frame rate mode                          : Constant
Frame rate                               : 25.000 fps
Original frame rate                      : 24.000 fps
Color space                              : YUV
Chroma subsampling                       : 4:2:0
Bit depth                                : 8 bits
Scan type                                : Progressive
Bits/(Pixel*Frame)                       : 0.211
Stream size                              : 5.42 GiB (89%)
Writing library                          : x264 core 132 r2310 76a5c3a
Encoding settings                        : cabac=1 / ref=5 / deblock=1:-3:-3 / analyse=0x3:0x113 / me=umh / subme=8 / psy=1 / psy_rd=1.00:0.00 / mixed_ref=1 / me_range=16 / chroma_me=1 / trellis=1 / 8x8dct=1 / cqm=0 / deadzone=21,11 / fast_pskip=1 / chroma_qp_offset=-2 / threads=18 / lookahead_threads=3 / sliced_threads=0 / nr=0 / decimate=1 / interlaced=0 / bluray_compat=0 / constrained_intra=0 / bframes=3 / b_pyramid=2 / b_adapt=2 / b_bias=0 / direct=3 / weightb=1 / open_gop=0 / weightp=2 / keyint=240 / keyint_min=24 / scenecut=40 / intra_refresh=0 / rc_lookahead=50 / rc=2pass / mbtree=1 / bitrate=8256 / ratetol=1.0 / qcomp=0.60 / qpmin=0 / qpmax=69 / qpstep=4 / cplxblur=20.0 / qblur=0.5 / ip_ratio=1.40 / aq=1:1.00
Language                                 : English
Default                                  : Yes
Forced                                   : No

Audio #1
ID                                       : 2
Format                                   : AC-3
Format/Info                              : Audio Coding 3
Mode extension                           : CM (complete main)
Format settings, Endianness              : Big
Codec ID                                 : A_AC3
Duration                                 : 1h 32mn
Bit rate mode                            : Constant
Bit rate                                 : 384 Kbps
Channel(s)                               : 2 channels
Channel positions                        : Front: L R
Sampling rate                            : 48.0 KHz
Bit depth                                : 16 bits
Compression mode                         : Lossy
Stream size                              : 253 MiB (4%)
Language                                 : German
Default                                  : Yes
Forced                                   : Yes

Audio #2
ID                                       : 3
Format                                   : AC-3
Format/Info                              : Audio Coding 3
Mode extension                           : CM (complete main)
Format settings, Endianness              : Big
Codec ID                                 : A_AC3
Duration                                 : 1h 32mn
Bit rate mode                            : Constant
Bit rate                                 : 448 Kbps
Channel(s)                               : 6 channels
Channel positions                        : Front: L C R, Side: L R, LFE
Sampling rate                            : 48.0 KHz
Bit depth                                : 16 bits
Compression mode                         : Lossy
Stream size                              : 296 MiB (5%)
Language                                 : English
Default                                  : No
Forced                                   : No

Text
ID                                       : 4
Format                                   : UTF-8
Codec ID                                 : S_TEXT/UTF8
Codec ID/Info                            : UTF-8 Plain Text
Language                                 : English
Default                                  : No
Forced                                   : No


Download:
Share Online | Uploaded Share Online | UploadedShare Online | UploadedShare Online | Uploaded
 

Kommentare