Logan 2017 WEB-DL x264-FGT | Reply 1997 | Late Night with S... Season 4 Episode 96(Jason Sudeikis, A...)
 


 




Wir sind wenn hd-area.org mal ausfällt unter hd-area.biz erreichbar


Hier klickenfür Informationen zur Umgehung staatlicher Zensurmaßnahmen




Filmwünsche können bei uns im Forum abgegeben werden

Wir Speichern Nicht




 
 
 
Top Releases
La.La.Land.2016.MULTi.COMPLE...
Jackie.Die.First.Lady.2016.G...
Die.irre.Heldentour.des.Bill...
Die.irre.Heldentour.des.Bill...
Jackie.Die.First.Lady.2016.G...
Die.irre.Heldentour.des.Bill...
Die.Irre.Heldentour.des.Bill...
The.Devils.Candy.2015.German...
Ghost.in.the.Shell.ARISE.Bor...
Die.Irre.Heldentour.des.Bill...

Cinedubs
Logan.-.The.Wolverine.NOIR.E...
Logan.-.The.Wolverine.German...
Logan.-.The.Wolverine.German...
Shin.Godzilla.German.MD.1080...
John.Wick.Kapitel.2.German.A...
John.Wick.Kapitel.2.German.A...
Shin.Godzilla.German.AC3MD.7...
Regeln.spielen.keine.Rolle.G...
Die.Schoene.und.das.Biest.Ge...
Regeln.spielen.keine.Rolle.G...

Neuerscheinungen 2016-17
Radio.Heimat.German.1080p.Bl...
Sex.And.Crime.2016.German.10...
Radio.Heimat.German.720p.Blu...
Night.of.Something.Strange.2...
Night.of.Something.Strange.2...
Die.Irre.Heldentour.des.Bill...
xXx.Die.Rueckkehr.des.Xander...
Jackie.Die.First.Lady.2016.G...
Trash.Fire.2016.MULTi.COMPLE...
Die.Irre.Heldentour.des.Bill...

XXX
FisterTwister.17.05.18.Anton...
21Naturals.17.05.21.Carolina...
Lesbea.17.05.21.Paula.Shy.An...
EuroSexParties.17.05.21.Kira...
ExploitedCollegeGirls.17.05....
8thStreetLatinas.17.05.19.Ve...
AussieFellatioQueens.E10.Ann...
Killergram.17.05.17.Rina.Ell...
GirlsWay.17.05.18.Romi.Rain....
EvilAngel.Summer.Sluts.XXX.7...
FakeTaxi.17.05.18.Paris.Divi...
HouseOfTaboo.17.05.18.Amirah...
FTVGirls.17.05.18.Olivia.Esp...
ATKGirlfriends.17.05.18.Zaya...
EvilAngel.Summer.Sluts.XXX.1...
IKnowThatGirl.17.05.18.Quinn...
LittleCapriceDreams.17.02.09...
HardX.17.05.19.Ashley.Adams....
CastingAllaItaliana.17.05.18...
AngelaWhite.15.02.21.Angela....

3D
Night.Fare.Bezahl.mit.deinem...
xXx.Die.Rueckkehr.des.Xande...
World.War.Z.3D.2013.German.D...
Die.Irre.Heldentour.des.Bill...
Machine.Wars.Planet.der.Robo...
The.Great.Wall.3D.2016.COMPL...
The.Great.Wall.3D.2016.Germa...
Zambezia.In.jedem.steckt.ein...
Passengers.3D.2016.German.DL...
Assassins.Creed.3D.2016.Germ...
Die.dunkle.Graefin.2015.3D.G...
Die.dunkle.Graefin.3D.2015.M...
Air.Speed.Fast.and.Ferocious...
Battlefield.Drone.Wars.3D.20...
Battlefield.Drone.Wars.3D.20...

Old_Stuff
Slither.Voll.auf.den.Schleim...
Shadowhunters.S01.German.DL....
The.Purge.Anarchy.2014.Germa...
Die.Sieben.Samurai.LANGFASSU...
Die.Sieben.Samurai.1954.LANG...
Bereavement.In.den.Haenden.d...
Drifter.Alle.Antworten.liege...
King.of.Queens.S06.DUAL.COMP...
Speed.2.Cruise.Control.1997....
Vamperifica.2011.German.DL.1...
The.Hobbit.The.Desolation.of...
Der.Hobbit.Eine.Unerwartete....
Das.Boese.I.Phantasm.I.1979....
Das.Boese.I.Phantasm.I.1979....
Das.Boese.I.Phantasm.I.1979....

Musik
The.Prometheus.Dolby.Atmos.E...
R.E.M.OUT.OF.TIME.25th.Anniv...
The.Rolling.Stones.GRRR.BR-A...
Mussorgsky.Bilder.einer.Auss...
Yes.-.The.Yes.Album.Bluray-A...
Carlos.Heredia.Gypsy.Flamenc...
SPES.2014.complete.Bluray.un...
Carlos.Santana.Collection.19...
Pink.Floyd.The.Endless.River...
The.Hyperion.Romantic.Piano....
Putumayo.113.CD.Flac.lossles...
UFO – Let It Roll (Limited...

Filme
Gintama.Vol.2.ANiME.DUAL.COM...
Mind.Blown.2016.GERMAN.DL.72...
Class.S01D01.MULTi.COMPLETE....
Gintama.Vol.1.ANiME.DUAL.COM...
Chop.2011.German.DL.1080p.Bl...
Chromeskull.Laid.To.Rest.2.U...
Shadowhunters.The.Mortal.Ins...
Sex.And.Crime.2016.German.72...
Es.war.einmal.das.Leben.S01....
Sexgefluester.2007.German.72...
Baron.Noir.S01D01+2.MULTi.CO...
The.Legendary.Dragon.Der.let...
Blendende.Weihnachten.mein.N...
Kill.Your.Friends.2015.Germa...
Eat.Local.2017.MULTi.COMPLET...
The.Frankenstein.Theory.2013...
The.Cloth.Kampf.mit.dem.Teuf...
Unbreakable.2000.German.DTS....
Cyrus.Meine.Freundin.ihr.Soh...
Cyrus.Meine.Freundin.ihr.Soh...
Bombshell.Bloodbath.2014.Ger...
Eva.Gefuehle.kann.man.nicht....
Lucky.Number.Slevin.2006.GER...
Lucky.Number.Slevin.2006.GER...

 
 
The.LEGO.Batman.Movie.German.MD.DL.1080p.WEB-DL.x264-SPECTRE
Jahr: 2017
Genre: Animation, Action, Adventure
Sprache: Deutsch AC3 | Englisch AC3
Laufzeit: 1h 44mn
Bitrate: 5 057 Kbps
Format: MKV
Größe: 3.69 GiB
Release:

Beschreibung:

Augenzwinkernde Respektlosigkeit hat ‘The LEGO Movie’ zu seinem weltweiten Erfolg verholfen – kein Wunder also, dass die selbsternannte Hauptfigur jenes Ensembles – LEGO Batman – jetzt die Hauptrolle in einem eigenen Leinwandabenteuer übernimmt. Doch in ‘Gotham’ stehen weitreichende Veränderungen bevor, und wenn Batman verhindern will, dass der Joker sich die Stadt durch eine feindliche Übernahme einverleibt, muss er vielleicht endlich einmal sein Image vom einsamen Rächer revidieren und die Unterstützung anderer annehmen. Außerdem könnte es ihm auch nicht schaden, wenn er alles etwas lockerer sehen würde.



Unique ID                                : 254106748508443465024920795592954170941 (0xBF2B2DFA6B106AB79086DC80A1C74E3D)
Complete name                            : batman.1080p-spectre.mkv
Format                                   : Matroska
Format version                           : Version 4 / Version 2
File size                                : 3.69 GiB
Duration                                 : 1h 44mn
Overall bit rate                         : 5 057 Kbps
Encoded date                             : UTC 2017-05-19 10:15:43
Writing application                      : mkvmerge v8.0.0 ('Til The Day That I Die') 64bit
Writing library                          : libebml v1.3.1 + libmatroska v1.4.2
DURATION                                 : 01:44:28.128000000
NUMBER_OF_FRAMES                         : 195879
NUMBER_OF_BYTES                          : 150435072
_STATISTICS_WRITING_APP                  : mkvmerge v8.0.0 ('Til The Day That I Die') 64bit
_STATISTICS_WRITING_DATE_UTC             : 2017-05-19 10:15:43
_STATISTICS_TAGS                         : BPS DURATION NUMBER_OF_FRAMES NUMBER_OF_BYTES

Video
ID                                       : 1
Format                                   : AVC
Format/Info                              : Advanced Video Codec
Format profile                           : [email protected]
Format settings, CABAC                   : Yes
Format settings, ReFrames                : 5 frames
Codec ID                                 : V_MPEG4/ISO/AVC
Duration                                 : 1h 44mn
Bit rate                                 : 4 380 Kbps
Width                                    : 1 912 pixels
Height                                   : 792 pixels
Display aspect ratio                     : 2.40:1
Frame rate mode                          : Constant
Frame rate                               : 23.976 fps
Color space                              : YUV
Chroma subsampling                       : 4:2:0
Bit depth                                : 8 bits
Scan type                                : Progressive
Bits/(Pixel*Frame)                       : 0.121
Stream size                              : 3.20 GiB (87%)
Title                                    : 1080p
Language                                 : English
Default                                  : Yes
Forced                                   : Yes
Color primaries                          : BT.709
Transfer characteristics                 : BT.709
Matrix coefficients                      : BT.709

Audio #1
ID                                       : 2
Format                                   : AC-3
Format/Info                              : Audio Coding 3
Mode extension                           : CM (complete main)
Format settings, Endianness              : Big
Codec ID                                 : A_AC3
Duration                                 : 1h 44mn
Bit rate mode                            : Constant
Bit rate                                 : 192 Kbps
Channel(s)                               : 2 channels
Channel positions                        : Front: L R
Sampling rate                            : 48.0 KHz
Bit depth                                : 16 bits
Compression mode                         : Lossy
Delay relative to video                  : -42ms
Stream size                              : 143 MiB (4%)
Language                                 : German
Default                                  : Yes
Forced                                   : Yes

Audio #2
ID                                       : 3
Format                                   : AC-3
Format/Info                              : Audio Coding 3
Mode extension                           : CM (complete main)
Format settings, Endianness              : Big
Codec ID                                 : A_AC3
Duration                                 : 1h 44mn
Bit rate mode                            : Constant
Bit rate                                 : 384 Kbps
Channel(s)                               : 6 channels
Channel positions                        : Front: L C R, Side: L R, LFE
Sampling rate                            : 48.0 KHz
Bit depth                                : 16 bits
Compression mode                         : Lossy
Delay relative to video                  : -42ms
Stream size                              : 287 MiB (8%)
Language                                 : English
Default                                  : No
Forced                                   : No


Download:
Share Online | Uploaded Share Online | UploadedShare Online | UploadedShare Online | Uploaded
 

Kommentare