Scintilla | The Best Acoustic Rock (2015) | Guardians of the Galaxy ...
 


 




Wir sind wenn hd-area.org mal ausfällt unter hd-area.biz erreichbar


Hier klickenfür Informationen zur Umgehung staatlicher Zensurmaßnahmen




Filmwünsche können bei uns im Forum abgegeben werden

Wir Speichern Nicht




 
 
 
Top Releases
La.La.Land.2016.MULTi.COMPLE...
Jackie.Die.First.Lady.2016.G...
Die.irre.Heldentour.des.Bill...
Die.irre.Heldentour.des.Bill...
Jackie.Die.First.Lady.2016.G...
Die.irre.Heldentour.des.Bill...
Die.Irre.Heldentour.des.Bill...
The.Devils.Candy.2015.German...
Ghost.in.the.Shell.ARISE.Bor...
Die.Irre.Heldentour.des.Bill...

Cinedubs
Logan.-.The.Wolverine.NOIR.E...
Logan.-.The.Wolverine.German...
Logan.-.The.Wolverine.German...
Shin.Godzilla.German.MD.1080...
John.Wick.Kapitel.2.German.A...
John.Wick.Kapitel.2.German.A...
Shin.Godzilla.German.AC3MD.7...
Regeln.spielen.keine.Rolle.G...
Die.Schoene.und.das.Biest.Ge...
Regeln.spielen.keine.Rolle.G...

Neuerscheinungen 2016-17
Radio.Heimat.German.1080p.Bl...
Sex.And.Crime.2016.German.10...
Radio.Heimat.German.720p.Blu...
Night.of.Something.Strange.2...
Night.of.Something.Strange.2...
Die.Irre.Heldentour.des.Bill...
xXx.Die.Rueckkehr.des.Xander...
Jackie.Die.First.Lady.2016.G...
Trash.Fire.2016.MULTi.COMPLE...
Die.Irre.Heldentour.des.Bill...

XXX
Errotica-Archives.17.05.21.C...
AllOver30.17.05.18.Melody.Ga...
ExploitedCollegeGirls.17.05....
GirlsWay.17.05.19.Carter.Cru...
AussieFellatioQueens.E28.Aer...
AussieFellatioQueens.E11.Ann...
BumsBuero.17.05.21.Jacky.Law...
1By-Day.17.05.18.Nikky.Dream...
ATKGirlfriends.17.05.21.Yara...
BackroomFacials.17.05.18.Nat...
KimberLeeLive.17.05.12.Hidde...
AussieFellatioQueens.E01.Amy...
DigicreationsXXX.Arteya.Dani...
AussieFellatioQueens.E29.Aer...
LittleCapriceDreams.17.02.18...
DaughterSwap.17.05.19.Alexa....
InTheCrack.E1284.Joseline.Ke...
BoldlyGirls.17.05.18.Jade.An...
FakeAgentUK.17.05.20.Lola.Ra...
Killergram.17.05.20.Mariska....

3D
xXx.Die.Rueckkehr.des.Xander...
Night.Fare.3D.2015.DUAL.COMP...
Night.Fare.Bezahl.mit.deinem...
xXx.Die.Rueckkehr.des.Xande...
World.War.Z.3D.2013.German.D...
Die.Irre.Heldentour.des.Bill...
Machine.Wars.Planet.der.Robo...
The.Great.Wall.3D.2016.COMPL...
The.Great.Wall.3D.2016.Germa...
Zambezia.In.jedem.steckt.ein...
Passengers.3D.2016.German.DL...
Assassins.Creed.3D.2016.Germ...
Die.dunkle.Graefin.2015.3D.G...
Die.dunkle.Graefin.3D.2015.M...
Air.Speed.Fast.and.Ferocious...

Old_Stuff
Der.gestiefelte.Kater.2011.M...
Slither.Voll.auf.den.Schleim...
Shadowhunters.S01.German.DL....
The.Purge.Anarchy.2014.Germa...
Die.Sieben.Samurai.LANGFASSU...
Die.Sieben.Samurai.1954.LANG...
Bereavement.In.den.Haenden.d...
Drifter.Alle.Antworten.liege...
King.of.Queens.S06.DUAL.COMP...
Speed.2.Cruise.Control.1997....
Vamperifica.2011.German.DL.1...
The.Hobbit.The.Desolation.of...
Der.Hobbit.Eine.Unerwartete....
Das.Boese.I.Phantasm.I.1979....
Das.Boese.I.Phantasm.I.1979....

Musik
The.Prometheus.Dolby.Atmos.E...
R.E.M.OUT.OF.TIME.25th.Anniv...
The.Rolling.Stones.GRRR.BR-A...
Mussorgsky.Bilder.einer.Auss...
Yes.-.The.Yes.Album.Bluray-A...
Carlos.Heredia.Gypsy.Flamenc...
SPES.2014.complete.Bluray.un...
Carlos.Santana.Collection.19...
Pink.Floyd.The.Endless.River...
The.Hyperion.Romantic.Piano....
Putumayo.113.CD.Flac.lossles...
UFO – Let It Roll (Limited...

Filme
The.Flash.S03.GERMAN.DUBBED....
This.is.Us.S01.German.1080p....
Hostages.S02.German.DL.720p....
Twin.Peaks.S03.German.DL.DUB...
Twin.Peaks.S03.German.DL.DUB...
Z.Nation.S03.GERMAN.DUBBED.D...
Z.Nation.S03.GERMAN.DUBBED.D...
Supergirl.S02.GERMAN.DUBBED....
Supergirl.S02.GERMAN.DUBBED....
New.Girl.S05.German.DL.DUBBE...
New.Girl.S05.German.DL.DUBBE...
Designated.Survivor.S01.Germ...
Fargo.S03.German.DD51.DL.108...
Fargo.S03.German.DD51.DL.720...
Formel.1.Saison.2017.GERMAN....
The.Living.Corpse.Ein.Zombie...
K2.Das.letzte.Abenteuer.1991...
Der.Letzte.Mohikaner.1992.Ge...
Cannibal.2010.German.1080p.B...
Frankensteins.Monster.im.Kam...
L.I.S.A.Der.helle.Wahnsinn.1...
Ludwig.II.German.1080p.BluRa...
Mortal.Kombat.1995.German.DL...
Hudson.Hawk.Der.Meisterdieb....

 
 
What.a.Man.German.1080p.BluRay.x264-ROOR
Jahr: 2011
Genre: Komödie
Sprache: Deutsch DTS
Laufzeit: 1h 34mn
Bitrate: 5 526 Kbps
Format: MKV
Größe: 3.65 GiB
Release:

Beschreibung:

Alex ist 30 Jahre alt, Lehrer, liebenswert, mit wenig Durchsetzungskraft und überaus domestiziert. So sehr, dass er sogar freiwillig die gemeinsame Wohnung räumt, als Freundin Carolin mit Jens, dem harten Kerl aus dem zweiten Stock, eine Affäre beginnt. Geknickt sucht er Trost und Unterschlupf bei Freundin Nele, die zwar weiß, wie man Pandas rettet, aber in Sachen Beziehungen selbst arg trudelt. Gut, dass er einen Kumpel wie Okke hat, der nur zu gerne bereit ist, ihn zum Vorzeigemacho auszubilden.



91343920566483868605963616466404 (0xB9514BBC08416E91888C630ACE9135E4)
Complete name                            : roor-what_a_man-1080p.mkv
Format                                   : Matroska
Format version                           : Version 2
File size                                : 3.65 GiB
Duration                                 : 1h 34mn
Overall bit rate                         : 5 526 Kbps
Encoded date                             : UTC 2012-02-05 20:55:25
Writing application                      : mkvmerge v5.2.1 ('A Far Off Place') built on Jan  2 2012 23:21:10
Writing library                          : libebml v1.2.3 + libmatroska v1.3.0

Video
ID                                       : 1
Format                                   : AVC
Format/Info                              : Advanced Video Codec
Format profile                           : [email protected]
Format settings, CABAC                   : Yes
Format settings, ReFrames                : 5 frames
Codec ID                                 : V_MPEG4/ISO/AVC
Duration                                 : 1h 34mn
Bit rate                                 : 3 907 Kbps
Width                                    : 1 920 pixels
Height                                   : 816 pixels
Display aspect ratio                     : 2.35:1
Frame rate mode                          : Constant
Frame rate                               : 23.976 fps
Color space                              : YUV
Chroma subsampling                       : 4:2:0
Bit depth                                : 8 bits
Scan type                                : Progressive
Bits/(Pixel*Frame)                       : 0.104
Stream size                              : 2.58 GiB (71%)
Title                                    : roor-what_a_man-1080p
Writing library                          : x264 core 120 r2146 bcd41db
Encoding settings                        : cabac=1 / ref=5 / deblock=1:0:0 / analyse=0x3:0x113 / me=umh / subme=7 / psy=1 / psy_rd=1.00:0.00 / mixed_ref=1 / me_range=16 / chroma_me=1 / trellis=1 / 8x8dct=1 / cqm=0 / deadzone=21,11 / fast_pskip=0 / chroma_qp_offset=-2 / threads=12 / sliced_threads=0 / nr=0 / decimate=1 / interlaced=0 / bluray_compat=0 / constrained_intra=0 / bframes=3 / b_pyramid=2 / b_adapt=1 / b_bias=0 / direct=1 / weightb=1 / open_gop=0 / weightp=2 / keyint=250 / keyint_min=23 / scenecut=40 / intra_refresh=0 / rc_lookahead=40 / rc=crf / mbtree=1 / crf=20.0 / qcomp=0.60 / qpmin=0 / qpmax=69 / qpstep=4 / ip_ratio=1.40 / aq=1:1.00
Default                                  : Yes
Forced                                   : No

Audio
ID                                       : 2
Format                                   : DTS
Format/Info                              : Digital Theater Systems
Mode                                     : 16
Format settings, Endianness              : Big
Codec ID                                 : A_DTS
Duration                                 : 1h 34mn
Bit rate mode                            : Constant
Bit rate                                 : 1 509 Kbps
Channel(s)                               : 6 channels
Channel positions                        : Front: L C R, Side: L R, LFE
Sampling rate                            : 48.0 KHz
Bit depth                                : 24 bits
Compression mode                         : Lossy
Stream size                              : 1 019 MiB (27%)
Title                                    : DTS_1510_DE
Language                                 : German
Default                                  : Yes
Forced                                   : No


Download:
Share Online | Uploaded Share Online | UploadedShare Online | UploadedShare Online | Uploaded
 

Kommentare