Rogue.One.(2016) | yannh: j'aime... | HD Lego Scooby-Doo!: Haunted Hollywood 2016
 


 




Wir sind wenn hd-area.org mal ausfällt unter hd-area.biz erreichbar


Hier klickenfür Informationen zur Umgehung staatlicher Zensurmaßnahmen




Filmwünsche können bei uns im Forum abgegeben werden

Wir Speichern Nicht




 
 
 
Top Releases
La.La.Land.2016.MULTi.COMPLE...
Jackie.Die.First.Lady.2016.G...
Die.irre.Heldentour.des.Bill...
Die.irre.Heldentour.des.Bill...
Jackie.Die.First.Lady.2016.G...
Die.irre.Heldentour.des.Bill...
Die.Irre.Heldentour.des.Bill...
The.Devils.Candy.2015.German...
Ghost.in.the.Shell.ARISE.Bor...
Die.Irre.Heldentour.des.Bill...

Cinedubs
Logan.-.The.Wolverine.NOIR.E...
Logan.-.The.Wolverine.German...
Logan.-.The.Wolverine.German...
Shin.Godzilla.German.MD.1080...
John.Wick.Kapitel.2.German.A...
John.Wick.Kapitel.2.German.A...
Shin.Godzilla.German.AC3MD.7...
Regeln.spielen.keine.Rolle.G...
Die.Schoene.und.das.Biest.Ge...
Regeln.spielen.keine.Rolle.G...

Neuerscheinungen 2016-17
Radio.Heimat.German.1080p.Bl...
Sex.And.Crime.2016.German.10...
Radio.Heimat.German.720p.Blu...
Night.of.Something.Strange.2...
Night.of.Something.Strange.2...
Die.Irre.Heldentour.des.Bill...
xXx.Die.Rueckkehr.des.Xander...
Jackie.Die.First.Lady.2016.G...
Trash.Fire.2016.MULTi.COMPLE...
Die.Irre.Heldentour.des.Bill...

XXX
21Naturals.17.05.21.Carolina...
Lesbea.17.05.21.Paula.Shy.An...
EuroSexParties.17.05.21.Kira...
ExploitedCollegeGirls.17.05....
8thStreetLatinas.17.05.19.Ve...
AussieFellatioQueens.E10.Ann...
Killergram.17.05.17.Rina.Ell...
GirlsWay.17.05.18.Romi.Rain....
EvilAngel.Summer.Sluts.XXX.7...
FakeTaxi.17.05.18.Paris.Divi...
HouseOfTaboo.17.05.18.Amirah...
FTVGirls.17.05.18.Olivia.Esp...
ATKGirlfriends.17.05.18.Zaya...
EvilAngel.Summer.Sluts.XXX.1...
IKnowThatGirl.17.05.18.Quinn...
LittleCapriceDreams.17.02.09...
HardX.17.05.19.Ashley.Adams....
CastingAllaItaliana.17.05.18...
AngelaWhite.15.02.21.Angela....
AussieFellatioQueens.E26.Ann...

3D
Night.Fare.Bezahl.mit.deinem...
xXx.Die.Rueckkehr.des.Xande...
World.War.Z.3D.2013.German.D...
Die.Irre.Heldentour.des.Bill...
Machine.Wars.Planet.der.Robo...
The.Great.Wall.3D.2016.COMPL...
The.Great.Wall.3D.2016.Germa...
Zambezia.In.jedem.steckt.ein...
Passengers.3D.2016.German.DL...
Assassins.Creed.3D.2016.Germ...
Die.dunkle.Graefin.2015.3D.G...
Die.dunkle.Graefin.3D.2015.M...
Air.Speed.Fast.and.Ferocious...
Battlefield.Drone.Wars.3D.20...
Battlefield.Drone.Wars.3D.20...

Old_Stuff
Slither.Voll.auf.den.Schleim...
Shadowhunters.S01.German.DL....
The.Purge.Anarchy.2014.Germa...
Die.Sieben.Samurai.LANGFASSU...
Die.Sieben.Samurai.1954.LANG...
Bereavement.In.den.Haenden.d...
Drifter.Alle.Antworten.liege...
King.of.Queens.S06.DUAL.COMP...
Speed.2.Cruise.Control.1997....
Vamperifica.2011.German.DL.1...
The.Hobbit.The.Desolation.of...
Der.Hobbit.Eine.Unerwartete....
Das.Boese.I.Phantasm.I.1979....
Das.Boese.I.Phantasm.I.1979....
Das.Boese.I.Phantasm.I.1979....

Musik
The.Prometheus.Dolby.Atmos.E...
R.E.M.OUT.OF.TIME.25th.Anniv...
The.Rolling.Stones.GRRR.BR-A...
Mussorgsky.Bilder.einer.Auss...
Yes.-.The.Yes.Album.Bluray-A...
Carlos.Heredia.Gypsy.Flamenc...
SPES.2014.complete.Bluray.un...
Carlos.Santana.Collection.19...
Pink.Floyd.The.Endless.River...
The.Hyperion.Romantic.Piano....
Putumayo.113.CD.Flac.lossles...
UFO – Let It Roll (Limited...

Filme
Mind.Blown.2016.GERMAN.DL.72...
Class.S01D01.MULTi.COMPLETE....
Gintama.Vol.1.ANiME.DUAL.COM...
Chop.2011.German.DL.1080p.Bl...
Chromeskull.Laid.To.Rest.2.U...
Shadowhunters.The.Mortal.Ins...
Sex.And.Crime.2016.German.72...
Es.war.einmal.das.Leben.S01....
Sexgefluester.2007.German.72...
Baron.Noir.S01D01+2.MULTi.CO...
The.Legendary.Dragon.Der.let...
Blendende.Weihnachten.mein.N...
Kill.Your.Friends.2015.Germa...
Eat.Local.2017.MULTi.COMPLET...
The.Frankenstein.Theory.2013...
The.Cloth.Kampf.mit.dem.Teuf...
Unbreakable.2000.German.DTS....
Cyrus.Meine.Freundin.ihr.Soh...
Cyrus.Meine.Freundin.ihr.Soh...
Bombshell.Bloodbath.2014.Ger...
Eva.Gefuehle.kann.man.nicht....
Lucky.Number.Slevin.2006.GER...
Lucky.Number.Slevin.2006.GER...
Wyoming.1999.German.DTS.DL.1...

 
 
Extortion.2017.1080p.WEB-DL.DD5.1.H264-FGT
Jahr: 2017
Genre: Action, Adventure, Crime
Sprache: Englisch AC3
Laufzeit: 1h 49mn
Bitrate: 4 961 Kbps
Format: MKV
Größe: 3.78 GiB
Release:

Beschreibung:

Seine Frau und sein Sohn werden auf irgendeiner dieser zahllosen einsamen Inseln verdursten, wenn Dr. Kevin Riley nicht 1 Million Dollar auftreibt. Aber die hat er nicht! Er ist doch bloß Arzt in einem Bezirkskrankenhaus und wollte einmal Ferien in der Karibik machen. Aber den Fischern, die die gestrandete Familie mit dem kaputten Motorboot gefunden haben, erscheint er als reicher Mann. Da muss sich was verdienen lassen! Mit aller Härte machen sie Riley den Ernst der Lage klar. Die Polizei ist wenig hilfreich, denn hier ist die Karibik, man ist schlecht ausgestattet und außerdem: Gibt es eigentlich Beweise für diese wilde Geschichte? Riley ist völlig auf sich allein gestellt.



Unique ID                                : 227188478143804591084277675917238850014 (0xAAEAE8C8638E6BE69182FDC525E3D1DE)
Complete name                            : extortion_eng.mkv
Format                                   : Matroska
Format version                           : Version 4 / Version 2
File size                                : 3.78 GiB
Duration                                 : 1h 49mn
Overall bit rate                         : 4 961 Kbps
Movie name                               : Extortion.2017.1080p.WEB-DL.DD5.1.H264-FGT
Encoded date                             : UTC 2017-05-16 04:21:25
Writing application                      : mkvmerge v11.0.0 ('Alive') 64bit
Writing library                          : libebml v1.3.4 + libmatroska v1.4.5
Attachements                             : cover.jpg / cover_land.jpg / small_cover.jpg / small_cover_land.jpg

Video
ID                                       : 1
Format                                   : AVC
Format/Info                              : Advanced Video Codec
Format profile                           : [email protected]
Format settings, CABAC                   : Yes
Format settings, ReFrames                : 5 frames
Codec ID                                 : V_MPEG4/ISO/AVC
Duration                                 : 1h 49mn
Bit rate                                 : 4 478 Kbps
Width                                    : 1 908 pixels
Height                                   : 792 pixels
Display aspect ratio                     : 2.40:1
Frame rate mode                          : Constant
Frame rate                               : 23.976 fps
Color space                              : YUV
Chroma subsampling                       : 4:2:0
Bit depth                                : 8 bits
Scan type                                : Progressive
Bits/(Pixel*Frame)                       : 0.124
Stream size                              : 3.42 GiB (90%)
Title                                    : Extortion.2017.1080p.WEB-DL.DD5.1.H264-FGT
Language                                 : English
Default                                  : Yes
Forced                                   : No
Color primaries                          : BT.709
Transfer characteristics                 : BT.709
Matrix coefficients                      : BT.709

Audio
ID                                       : 2
Format                                   : AC-3
Format/Info                              : Audio Coding 3
Mode extension                           : CM (complete main)
Format settings, Endianness              : Big
Codec ID                                 : A_AC3
Duration                                 : 1h 49mn
Bit rate mode                            : Constant
Bit rate                                 : 384 Kbps
Channel(s)                               : 6 channels
Channel positions                        : Front: L C R, Side: L R, LFE
Sampling rate                            : 48.0 KHz
Bit depth                                : 16 bits
Compression mode                         : Lossy
Delay relative to video                  : -42ms
Stream size                              : 300 MiB (8%)
Title                                    : Extortion.2017.1080p.WEB-DL.DD5.1.H264-FGT
Language                                 : English
Default                                  : Yes
Forced                                   : No

Text
ID                                       : 3
Format                                   : UTF-8
Codec ID                                 : S_TEXT/UTF8
Codec ID/Info                            : UTF-8 Plain Text
Language                                 : English
Default                                  : Yes
Forced                                   : No


Download:
Share Online | Uploaded Share Online | UploadedShare Online | UploadedShare Online | Uploaded
 

Kommentare