The Real Housewives of New York City … | Small Crimes | 7 Witches
 


 




Wir sind wenn hd-area.org mal ausfällt unter hd-area.biz erreichbar


Hier klickenfür Informationen zur Umgehung staatlicher Zensurmaßnahmen




Filmwünsche können bei uns im Forum abgegeben werden

Wir Speichern Nicht




 
 
 
Top Releases
La.La.Land.2016.MULTi.COMPLE...
Jackie.Die.First.Lady.2016.G...
Die.irre.Heldentour.des.Bill...
Die.irre.Heldentour.des.Bill...
Jackie.Die.First.Lady.2016.G...
Die.irre.Heldentour.des.Bill...
Die.Irre.Heldentour.des.Bill...
The.Devils.Candy.2015.German...
Ghost.in.the.Shell.ARISE.Bor...
Die.Irre.Heldentour.des.Bill...

Cinedubs
Logan.-.The.Wolverine.NOIR.E...
Logan.-.The.Wolverine.German...
Logan.-.The.Wolverine.German...
Shin.Godzilla.German.MD.1080...
John.Wick.Kapitel.2.German.A...
John.Wick.Kapitel.2.German.A...
Shin.Godzilla.German.AC3MD.7...
Regeln.spielen.keine.Rolle.G...
Die.Schoene.und.das.Biest.Ge...
Regeln.spielen.keine.Rolle.G...

Neuerscheinungen 2016-17
Radio.Heimat.German.1080p.Bl...
Sex.And.Crime.2016.German.10...
Radio.Heimat.German.720p.Blu...
Night.of.Something.Strange.2...
Night.of.Something.Strange.2...
Die.Irre.Heldentour.des.Bill...
xXx.Die.Rueckkehr.des.Xander...
Jackie.Die.First.Lady.2016.G...
Trash.Fire.2016.MULTi.COMPLE...
Die.Irre.Heldentour.des.Bill...

XXX
Errotica-Archives.17.05.21.C...
AllOver30.17.05.18.Melody.Ga...
ExploitedCollegeGirls.17.05....
GirlsWay.17.05.19.Carter.Cru...
AussieFellatioQueens.E28.Aer...
AussieFellatioQueens.E11.Ann...
BumsBuero.17.05.21.Jacky.Law...
1By-Day.17.05.18.Nikky.Dream...
ATKGirlfriends.17.05.21.Yara...
BackroomFacials.17.05.18.Nat...
KimberLeeLive.17.05.12.Hidde...
AussieFellatioQueens.E01.Amy...
DigicreationsXXX.Arteya.Dani...
AussieFellatioQueens.E29.Aer...
LittleCapriceDreams.17.02.18...
DaughterSwap.17.05.19.Alexa....
InTheCrack.E1284.Joseline.Ke...
BoldlyGirls.17.05.18.Jade.An...
FakeAgentUK.17.05.20.Lola.Ra...
Killergram.17.05.20.Mariska....

3D
xXx.Die.Rueckkehr.des.Xander...
Night.Fare.3D.2015.DUAL.COMP...
Night.Fare.Bezahl.mit.deinem...
xXx.Die.Rueckkehr.des.Xande...
World.War.Z.3D.2013.German.D...
Die.Irre.Heldentour.des.Bill...
Machine.Wars.Planet.der.Robo...
The.Great.Wall.3D.2016.COMPL...
The.Great.Wall.3D.2016.Germa...
Zambezia.In.jedem.steckt.ein...
Passengers.3D.2016.German.DL...
Assassins.Creed.3D.2016.Germ...
Die.dunkle.Graefin.2015.3D.G...
Die.dunkle.Graefin.3D.2015.M...
Air.Speed.Fast.and.Ferocious...

Old_Stuff
Der.gestiefelte.Kater.2011.M...
Slither.Voll.auf.den.Schleim...
Shadowhunters.S01.German.DL....
The.Purge.Anarchy.2014.Germa...
Die.Sieben.Samurai.LANGFASSU...
Die.Sieben.Samurai.1954.LANG...
Bereavement.In.den.Haenden.d...
Drifter.Alle.Antworten.liege...
King.of.Queens.S06.DUAL.COMP...
Speed.2.Cruise.Control.1997....
Vamperifica.2011.German.DL.1...
The.Hobbit.The.Desolation.of...
Der.Hobbit.Eine.Unerwartete....
Das.Boese.I.Phantasm.I.1979....
Das.Boese.I.Phantasm.I.1979....

Musik
The.Prometheus.Dolby.Atmos.E...
R.E.M.OUT.OF.TIME.25th.Anniv...
The.Rolling.Stones.GRRR.BR-A...
Mussorgsky.Bilder.einer.Auss...
Yes.-.The.Yes.Album.Bluray-A...
Carlos.Heredia.Gypsy.Flamenc...
SPES.2014.complete.Bluray.un...
Carlos.Santana.Collection.19...
Pink.Floyd.The.Endless.River...
The.Hyperion.Romantic.Piano....
Putumayo.113.CD.Flac.lossles...
UFO – Let It Roll (Limited...

Filme
The.Flash.S03.GERMAN.DUBBED....
This.is.Us.S01.German.1080p....
Hostages.S02.German.DL.720p....
Twin.Peaks.S03.German.DL.DUB...
Twin.Peaks.S03.German.DL.DUB...
Z.Nation.S03.GERMAN.DUBBED.D...
Z.Nation.S03.GERMAN.DUBBED.D...
Supergirl.S02.GERMAN.DUBBED....
Supergirl.S02.GERMAN.DUBBED....
New.Girl.S05.German.DL.DUBBE...
New.Girl.S05.German.DL.DUBBE...
Designated.Survivor.S01.Germ...
Fargo.S03.German.DD51.DL.108...
Fargo.S03.German.DD51.DL.720...
Formel.1.Saison.2017.GERMAN....
The.Living.Corpse.Ein.Zombie...
K2.Das.letzte.Abenteuer.1991...
Der.Letzte.Mohikaner.1992.Ge...
Cannibal.2010.German.1080p.B...
Frankensteins.Monster.im.Kam...
L.I.S.A.Der.helle.Wahnsinn.1...
Ludwig.II.German.1080p.BluRa...
Mortal.Kombat.1995.German.DL...
Hudson.Hawk.Der.Meisterdieb....

 
 
Das.Versprechen.2013.German.DL.1080p.BluRay.x264-ENCOUNTERS
Jahr: 2013
Genre: Drama, Family
Sprache: Deutsch AC3 | Englisch AC3
Laufzeit: 1h 40mn
Bitrate: 9 368 Kbps
Format: MKV
Größe: 6.55 GiB
Release:

Beschreibung:

New York, in den 1940ern: Ein tragischer Autounfall ändert das Leben der zwölfjährigen Lou und ihres jüngeren Bruders Oz schlagartig. Der Vater stirbt dabei, die Mutter wird zum Pflegefall und ist nicht mehr ansprechbar. Lous Urgroßmutter nimmt sich der Kinder an, allerdings bedeutet dies eine radikale Umstellung. Die Frau lebt in den Bergen Virginias auf einer Farm ohne Strom und fließend Wasser. Für Lou und ihren Bruder ist das Leben ohne Wohlstand anfangs schwierig, doch allmählich gewöhnen sie sich daran. Als Erdgas unter dem Grundstück gefunden wird, droht die heile Welt zu zerbrechen. Die perfiden Betreiber einer Bergbaugesellschaft versuchen nämlich um jeden Preis, die Familie zu vertreiben. Koste es, was es wolle…



Unique ID                                : 200898965544478414230255146635998828900 (0x9723BBBD13FF4175BEE338A0C4F09964)
Complete name                            : encounters-dave2013_1080p.mkv
Format                                   : Matroska
Format version                           : Version 4 / Version 2
File size                                : 6.55 GiB
Duration                                 : 1h 40mn
Overall bit rate                         : 9 368 Kbps
Encoded date                             : UTC 2015-11-08 13:05:24
Writing application                      : mkvmerge v8.3.0 ('Over the Horizon') 64bit
Writing library                          : libebml v1.3.1 + libmatroska v1.4.2
DURATION                                 : 01:40:08.000000000
NUMBER_OF_FRAMES                         : 187750
NUMBER_OF_BYTES                          : 336448000
_STATISTICS_WRITING_APP                  : mkvmerge v8.3.0 ('Over the Horizon') 64bit
_STATISTICS_WRITING_DATE_UTC             : 2015-11-08 13:05:24
_STATISTICS_TAGS                         : BPS DURATION NUMBER_OF_FRAMES NUMBER_OF_BYTES

Video
ID                                       : 1
Format                                   : AVC
Format/Info                              : Advanced Video Codec
Format profile                           : [email protected]
Format settings, CABAC                   : Yes
Format settings, ReFrames                : 4 frames
Codec ID                                 : V_MPEG4/ISO/AVC
Duration                                 : 1h 40mn
Bit rate                                 : 8 484 Kbps
Width                                    : 1 920 pixels
Height                                   : 1 080 pixels
Display aspect ratio                     : 16:9
Frame rate mode                          : Constant
Frame rate                               : 23.976 fps
Color space                              : YUV
Chroma subsampling                       : 4:2:0
Bit depth                                : 8 bits
Scan type                                : Progressive
Bits/(Pixel*Frame)                       : 0.171
Stream size                              : 5.79 GiB (88%)
Writing library                          : x264 core 148 r2638 7599210
Encoding settings                        : cabac=1 / ref=4 / deblock=1:-1:-1 / analyse=0x3:0x133 / me=umh / subme=7 / psy=1 / psy_rd=1.00:0.15 / mixed_ref=1 / me_range=16 / chroma_me=1 / trellis=1 / 8x8dct=1 / cqm=0 / deadzone=21,11 / fast_pskip=0 / chroma_qp_offset=-3 / threads=8 / lookahead_threads=1 / sliced_threads=0 / nr=0 / decimate=1 / interlaced=0 / bluray_compat=0 / constrained_intra=0 / bframes=3 / b_pyramid=2 / b_adapt=1 / b_bias=0 / direct=1 / weightb=1 / open_gop=0 / weightp=2 / keyint=250 / keyint_min=23 / scenecut=40 / intra_refresh=0 / rc_lookahead=40 / rc=2pass / mbtree=1 / bitrate=8484 / ratetol=1.0 / qcomp=0.60 / qpmin=0 / qpmax=69 / qpstep=4 / cplxblur=20.0 / qblur=0.5 / ip_ratio=1.40 / aq=1:1.00
Default                                  : Yes
Forced                                   : No

Audio #1
ID                                       : 2
Format                                   : AC-3
Format/Info                              : Audio Coding 3
Mode extension                           : CM (complete main)
Format settings, Endianness              : Big
Codec ID                                 : A_AC3
Duration                                 : 1h 40mn
Bit rate mode                            : Constant
Bit rate                                 : 448 Kbps
Channel(s)                               : 6 channels
Channel positions                        : Front: L C R, Side: L R, LFE
Sampling rate                            : 48.0 KHz
Bit depth                                : 16 bits
Compression mode                         : Lossy
Stream size                              : 321 MiB (5%)
Language                                 : German
Default                                  : Yes
Forced                                   : No

Audio #2
ID                                       : 3
Format                                   : AC-3
Format/Info                              : Audio Coding 3
Mode extension                           : CM (complete main)
Format settings, Endianness              : Big
Codec ID                                 : A_AC3
Duration                                 : 1h 40mn
Bit rate mode                            : Constant
Bit rate                                 : 448 Kbps
Channel(s)                               : 6 channels
Channel positions                        : Front: L C R, Side: L R, LFE
Sampling rate                            : 48.0 KHz
Bit depth                                : 16 bits
Compression mode                         : Lossy
Stream size                              : 321 MiB (5%)
Language                                 : English
Default                                  : No
Forced                                   : No


Download:
Share Online | Uploaded Share Online | UploadedShare Online | UploadedShare Online | Uploaded
 

Kommentare