SD Doctor Who Temporada 5 | Katy Perry | Coding Corner
 


 




Wir sind wenn hd-area.org mal ausfällt unter hd-area.biz erreichbar


Hier klickenfür Informationen zur Umgehung staatlicher Zensurmaßnahmen




Filmwünsche können bei uns im Forum abgegeben werden

Wir Speichern Nicht




 
 
 
Top Releases
T2.Trainspotting.German.DL.....
T2.Trainspotting.German.DL.7...
La.La.Land.2016.MULTi.COMPLE...
Jackie.Die.First.Lady.2016.G...
Die.irre.Heldentour.des.Bill...
Die.irre.Heldentour.des.Bill...
Jackie.Die.First.Lady.2016.G...
Die.irre.Heldentour.des.Bill...
Die.Irre.Heldentour.des.Bill...
The.Devils.Candy.2015.German...

Cinedubs
The.LEGO.Batman.Movie.German...
The.LEGO.Batman.Movie.German...
Logan.-.The.Wolverine.NOIR.E...
Logan.-.The.Wolverine.German...
Logan.-.The.Wolverine.German...
Shin.Godzilla.German.MD.1080...
John.Wick.Kapitel.2.German.A...
John.Wick.Kapitel.2.German.A...
Shin.Godzilla.German.AC3MD.7...
Regeln.spielen.keine.Rolle.G...

Neuerscheinungen 2016-17
Heimliche.Blicke.OVA.2013.DU...
Radio.Heimat.German.1080p.Bl...
Sex.And.Crime.2016.German.10...
Radio.Heimat.German.720p.Blu...
Night.of.Something.Strange.2...
Night.of.Something.Strange.2...
Die.Irre.Heldentour.des.Bill...
xXx.Die.Rueckkehr.des.Xander...
Jackie.Die.First.Lady.2016.G...
Trash.Fire.2016.MULTi.COMPLE...

XXX
AussieFellatioQueens.E35.Ril...
AussieFellatioQueens.E34.Ril...
AussieFellatioQueens.E32.Ann...
WetAndPuffy.17.05.19.Jimena....
UpHerAsshole.17.05.18.Candic...
AussieFellatioQueens.E33.Amy...
JulesJordan.17.05.22.Bailey....
Black.Street.Hookers.100.XXX...
NaughtyOffice.17.05.22.Carte...
Penthouse.16.06.12.Brooklyn....
MontysPOV.17.05.19.Emma.Loui...
AngelaWhite.15.05.04.Angela....
AllOver30.17.05.22.Sage.Ques...
NewSensations.17.05.22.Madis...
AussieFellatioQueens.E37.Dan...
Penthouse.16.06.18.Evelyn.Li...
Penthouse.16.06.13.Nicole.An...
QuestForOrgasm.17.05.22.Chri...
PlayboyPlus.17.05.22.Veronik...
LivingWithAPornstar.17.05.22...

3D
xXx.Die.Rueckkehr.des.Xander...
Night.Fare.3D.2015.DUAL.COMP...
Night.Fare.Bezahl.mit.deinem...
xXx.Die.Rueckkehr.des.Xande...
World.War.Z.3D.2013.German.D...
Die.Irre.Heldentour.des.Bill...
Machine.Wars.Planet.der.Robo...
The.Great.Wall.3D.2016.COMPL...
The.Great.Wall.3D.2016.Germa...
Zambezia.In.jedem.steckt.ein...
Passengers.3D.2016.German.DL...
Assassins.Creed.3D.2016.Germ...
Die.dunkle.Graefin.2015.3D.G...
Die.dunkle.Graefin.3D.2015.M...
Air.Speed.Fast.and.Ferocious...

Old_Stuff
Der.gestiefelte.Kater.2011.M...
Slither.Voll.auf.den.Schleim...
Shadowhunters.S01.German.DL....
The.Purge.Anarchy.2014.Germa...
Die.Sieben.Samurai.LANGFASSU...
Die.Sieben.Samurai.1954.LANG...
Bereavement.In.den.Haenden.d...
Drifter.Alle.Antworten.liege...
King.of.Queens.S06.DUAL.COMP...
Speed.2.Cruise.Control.1997....
Vamperifica.2011.German.DL.1...
The.Hobbit.The.Desolation.of...
Der.Hobbit.Eine.Unerwartete....
Das.Boese.I.Phantasm.I.1979....
Das.Boese.I.Phantasm.I.1979....

Musik
The.Prometheus.Dolby.Atmos.E...
R.E.M.OUT.OF.TIME.25th.Anniv...
The.Rolling.Stones.GRRR.BR-A...
Mussorgsky.Bilder.einer.Auss...
Yes.-.The.Yes.Album.Bluray-A...
Carlos.Heredia.Gypsy.Flamenc...
SPES.2014.complete.Bluray.un...
Carlos.Santana.Collection.19...
Pink.Floyd.The.Endless.River...
The.Hyperion.Romantic.Piano....
Putumayo.113.CD.Flac.lossles...
UFO – Let It Roll (Limited...

Filme
Zum.Teufel.mit.den.Millionen...
20.Minutes.The.Power.of.Few....
Unterwegs.mit.Evie.2006.Germ...
Sensoria.2015.German.1080p.B...
Sensoria.2015.German.720p.Bl...
Unter.Bauern.Retter.in.der.N...
Das.Geheimnis.des.verborgene...
The.Tunnel.S01-S02.Complete....
Joint.Security.Area.2000.Ger...
Die.drei.Fragezeichen.Das.Ge...
Southpaw.2015.German.DL.1080...
Southpaw.2015.German.DL.1080...
Southpaw.2015.German.DTS.DL....
Vidocq.German.DL.2001.1080p....
Hackers.1995.1080p.GERMAN.DU...
Hooligans.2005.German.DTS.DL...
Schatz.du.strahlst.ja.so.198...
Der.Polarexpress.2004.German...
Helden.1958.German.1080p.Blu...
Helden.1958.German.720p.BluR...
Werner.-.Volles.Roor.-.1999....
Erbarmungslos.1992.4K.Remast...
American.Crime.Story.S01.COM...
Saboteure.im.Eis.Operation.S...

 
 
Hacksaw.Ridge.Die.Entscheidung.German.DL.AC3.Dubbed.1080p.BluRay.x264-PsO
Jahr: 2016
Genre: Drama, History, War
Sprache: Deutsch AC3 | Englisch AC3
Laufzeit: 2h 19mn
Bitrate: 10.3 Mbps
Format: MKV
Größe: 10.0 GiB
Release:

Beschreibung:

Der junge Desmond T. Doss (Andrew Garfield) wächst im US-Bundesstaat Virginia als ergebener Christ mit einem strengen Moralkodex auf. Als eines Tages sein Vater Tom (Hugo Weaving), Kriegsveteran und Trinker, im Streit seine Mutter Bertha (Rachel Griffiths) bedroht, greift Desmond zur Waffe und bringt ihn dazu, aufzuhören. Desmond schwört sich daraufhin, nie wieder eine Waffe auch nur anzurühren. Doch als sich sein Bruder Hal (Nathaniel Buzolic) nach dem Angriff der Japaner auf Pearl Harbor zum Kriegsdienst meldet, folgt ihm Desmond kurze Zeit später. Weil er aber weiterhin darauf beharrt, keine Waffe anzufassen, machen es ihm seine Vorgesetzten Captain Glover (Sam Worthington) und Sgt. Howell (Vince Vaughn), sowie seine Kameraden wie der harte Smitty (Luke Bracey) extrem schwer in der Ausbildung. An der Front gegen die Japaner wendet sich jedoch das Blatt: Während die Kugeln an ihnen vorbeischwirren und immer mehr Verluste zu vermelden sind, wächst Desmond über sich hinaus und rettet einem Verwundeten nach dem anderen das Leben - noch immer ohne eine Waffe zu tragen…



Unique ID                                : 173980905530208566823243547713849489096 (0x82E380EA0B305CC9840AE0C3B21776C8)
Complete name                            : pso-hacksaw_bd.1080p.mkv
Format                                   : Matroska
Format version                           : Version 4 / Version 2
File size                                : 10.0 GiB
Duration                                 : 2h 19mn
Overall bit rate                         : 10.3 Mbps
Encoded date                             : UTC 2017-05-18 19:29:27
Writing application                      : mkvmerge v8.0.0 ('Til The Day That I Die') 64bit
Writing library                          : libebml v1.3.1 + libmatroska v1.4.2
DURATION                                 : 02:09:48.823000000
NUMBER_OF_FRAMES                         : 1655
NUMBER_OF_BYTES                          : 54437
_STATISTICS_WRITING_APP                  : mkvmerge v8.0.0 ('Til The Day That I Die') 64bit
_STATISTICS_WRITING_DATE_UTC             : 2017-05-18 19:29:27
_STATISTICS_TAGS                         : BPS DURATION NUMBER_OF_FRAMES NUMBER_OF_BYTES

Video
ID                                       : 1
Format                                   : AVC
Format/Info                              : Advanced Video Codec
Format profile                           : [email protected]
Format settings, CABAC                   : Yes
Format settings, ReFrames                : 5 frames
Codec ID                                 : V_MPEG4/ISO/AVC
Duration                                 : 2h 19mn
Bit rate                                 : 9 470 Kbps
Width                                    : 1 920 pixels
Height                                   : 808 pixels
Display aspect ratio                     : 2.40:1
Frame rate mode                          : Constant
Frame rate                               : 23.976 fps
Color space                              : YUV
Chroma subsampling                       : 4:2:0
Bit depth                                : 8 bits
Scan type                                : Progressive
Bits/(Pixel*Frame)                       : 0.255
Stream size                              : 9.01 GiB (90%)
Writing library                          : x264 core 148 r2744 b97ae06
Encoding settings                        : cabac=1 / ref=5 / deblock=1:0:0 / analyse=0x3:0x133 / me=umh / subme=7 / psy=1 / psy_rd=1.00:0.00 / mixed_ref=1 / me_range=16 / chroma_me=1 / trellis=1 / 8x8dct=1 / cqm=0 / deadzone=21,11 / fast_pskip=0 / chroma_qp_offset=-2 / threads=25 / lookahead_threads=4 / sliced_threads=0 / nr=0 / decimate=1 / interlaced=0 / bluray_compat=0 / constrained_intra=0 / bframes=3 / b_pyramid=2 / b_adapt=1 / b_bias=0 / direct=1 / weightb=1 / open_gop=0 / weightp=2 / keyint=250 / keyint_min=23 / scenecut=40 / intra_refresh=0 / rc_lookahead=40 / rc=2pass / mbtree=1 / bitrate=9470 / ratetol=1.0 / qcomp=0.60 / qpmin=0 / qpmax=69 / qpstep=4 / cplxblur=20.0 / qblur=0.5 / ip_ratio=1.40 / aq=1:1.00
Language                                 : English
Default                                  : Yes
Forced                                   : No
DURATION                                 : 02:19:19.406000000
NUMBER_OF_FRAMES                         : 200425
NUMBER_OF_BYTES                          : 9889352178
_STATISTICS_WRITING_APP                  : mkvmerge v8.0.0 ('Til The Day That I Die') 64bit
_STATISTICS_WRITING_DATE_UTC             : 2017-05-18 19:29:27
_STATISTICS_TAGS                         : BPS DURATION NUMBER_OF_FRAMES NUMBER_OF_BYTES

Audio #1
ID                                       : 2
Format                                   : AC-3
Format/Info                              : Audio Coding 3
Mode extension                           : CM (complete main)
Format settings, Endianness              : Big
Codec ID                                 : A_AC3
Duration                                 : 2h 19mn
Bit rate mode                            : Constant
Bit rate                                 : 192 Kbps
Channel(s)                               : 2 channels
Channel positions                        : Front: L R
Sampling rate                            : 48.0 KHz
Bit depth                                : 16 bits
Compression mode                         : Lossy
Delay relative to video                  : 21ms
Stream size                              : 192 MiB (2%)
Language                                 : German
Default                                  : Yes
Forced                                   : Yes

Audio #2
ID                                       : 3
Format                                   : AC-3
Format/Info                              : Audio Coding 3
Mode extension                           : CM (complete main)
Format settings, Endianness              : Big
Codec ID                                 : A_AC3
Duration                                 : 2h 19mn
Bit rate mode                            : Constant
Bit rate                                 : 640 Kbps
Channel(s)                               : 6 channels
Channel positions                        : Front: L C R, Side: L R, LFE
Sampling rate                            : 48.0 KHz
Bit depth                                : 16 bits
Compression mode                         : Lossy
Stream size                              : 639 MiB (6%)
Language                                 : English
Default                                  : No
Forced                                   : No


Download:
Share Online | Uploaded Share Online | UploadedShare Online | UploadedShare Online | Uploaded
 

Kommentare