Bob’s Burgers | Chicago PD saison 3 épisode 4 | Download
 


 




Wir sind wenn hd-area.org mal ausfällt unter hd-area.biz erreichbar


Hier klickenfür Informationen zur Umgehung staatlicher Zensurmaßnahmen




Filmwünsche können bei uns im Forum abgegeben werden

Wir Speichern Nicht




 
 
 
Top Releases
La.La.Land.2016.MULTi.COMPLE...
Jackie.Die.First.Lady.2016.G...
Die.irre.Heldentour.des.Bill...
Die.irre.Heldentour.des.Bill...
Jackie.Die.First.Lady.2016.G...
Die.irre.Heldentour.des.Bill...
Die.Irre.Heldentour.des.Bill...
The.Devils.Candy.2015.German...
Ghost.in.the.Shell.ARISE.Bor...
Die.Irre.Heldentour.des.Bill...

Cinedubs
Logan.-.The.Wolverine.NOIR.E...
Logan.-.The.Wolverine.German...
Logan.-.The.Wolverine.German...
Shin.Godzilla.German.MD.1080...
John.Wick.Kapitel.2.German.A...
John.Wick.Kapitel.2.German.A...
Shin.Godzilla.German.AC3MD.7...
Regeln.spielen.keine.Rolle.G...
Die.Schoene.und.das.Biest.Ge...
Regeln.spielen.keine.Rolle.G...

Neuerscheinungen 2016-17
Radio.Heimat.German.1080p.Bl...
Sex.And.Crime.2016.German.10...
Radio.Heimat.German.720p.Blu...
Night.of.Something.Strange.2...
Night.of.Something.Strange.2...
Die.Irre.Heldentour.des.Bill...
xXx.Die.Rueckkehr.des.Xander...
Jackie.Die.First.Lady.2016.G...
Trash.Fire.2016.MULTi.COMPLE...
Die.Irre.Heldentour.des.Bill...

XXX
21Naturals.17.05.21.Carolina...
Lesbea.17.05.21.Paula.Shy.An...
EuroSexParties.17.05.21.Kira...
ExploitedCollegeGirls.17.05....
8thStreetLatinas.17.05.19.Ve...
AussieFellatioQueens.E10.Ann...
Killergram.17.05.17.Rina.Ell...
GirlsWay.17.05.18.Romi.Rain....
EvilAngel.Summer.Sluts.XXX.7...
FakeTaxi.17.05.18.Paris.Divi...
HouseOfTaboo.17.05.18.Amirah...
FTVGirls.17.05.18.Olivia.Esp...
ATKGirlfriends.17.05.18.Zaya...
EvilAngel.Summer.Sluts.XXX.1...
IKnowThatGirl.17.05.18.Quinn...
LittleCapriceDreams.17.02.09...
HardX.17.05.19.Ashley.Adams....
CastingAllaItaliana.17.05.18...
AngelaWhite.15.02.21.Angela....
AussieFellatioQueens.E26.Ann...

3D
Night.Fare.Bezahl.mit.deinem...
xXx.Die.Rueckkehr.des.Xande...
World.War.Z.3D.2013.German.D...
Die.Irre.Heldentour.des.Bill...
Machine.Wars.Planet.der.Robo...
The.Great.Wall.3D.2016.COMPL...
The.Great.Wall.3D.2016.Germa...
Zambezia.In.jedem.steckt.ein...
Passengers.3D.2016.German.DL...
Assassins.Creed.3D.2016.Germ...
Die.dunkle.Graefin.2015.3D.G...
Die.dunkle.Graefin.3D.2015.M...
Air.Speed.Fast.and.Ferocious...
Battlefield.Drone.Wars.3D.20...
Battlefield.Drone.Wars.3D.20...

Old_Stuff
Slither.Voll.auf.den.Schleim...
Shadowhunters.S01.German.DL....
The.Purge.Anarchy.2014.Germa...
Die.Sieben.Samurai.LANGFASSU...
Die.Sieben.Samurai.1954.LANG...
Bereavement.In.den.Haenden.d...
Drifter.Alle.Antworten.liege...
King.of.Queens.S06.DUAL.COMP...
Speed.2.Cruise.Control.1997....
Vamperifica.2011.German.DL.1...
The.Hobbit.The.Desolation.of...
Der.Hobbit.Eine.Unerwartete....
Das.Boese.I.Phantasm.I.1979....
Das.Boese.I.Phantasm.I.1979....
Das.Boese.I.Phantasm.I.1979....

Musik
The.Prometheus.Dolby.Atmos.E...
R.E.M.OUT.OF.TIME.25th.Anniv...
The.Rolling.Stones.GRRR.BR-A...
Mussorgsky.Bilder.einer.Auss...
Yes.-.The.Yes.Album.Bluray-A...
Carlos.Heredia.Gypsy.Flamenc...
SPES.2014.complete.Bluray.un...
Carlos.Santana.Collection.19...
Pink.Floyd.The.Endless.River...
The.Hyperion.Romantic.Piano....
Putumayo.113.CD.Flac.lossles...
UFO – Let It Roll (Limited...

Filme
Mind.Blown.2016.GERMAN.DL.72...
Class.S01D01.MULTi.COMPLETE....
Gintama.Vol.1.ANiME.DUAL.COM...
Chop.2011.German.DL.1080p.Bl...
Chromeskull.Laid.To.Rest.2.U...
Shadowhunters.The.Mortal.Ins...
Sex.And.Crime.2016.German.72...
Es.war.einmal.das.Leben.S01....
Sexgefluester.2007.German.72...
Baron.Noir.S01D01+2.MULTi.CO...
The.Legendary.Dragon.Der.let...
Blendende.Weihnachten.mein.N...
Kill.Your.Friends.2015.Germa...
Eat.Local.2017.MULTi.COMPLET...
The.Frankenstein.Theory.2013...
The.Cloth.Kampf.mit.dem.Teuf...
Unbreakable.2000.German.DTS....
Cyrus.Meine.Freundin.ihr.Soh...
Cyrus.Meine.Freundin.ihr.Soh...
Bombshell.Bloodbath.2014.Ger...
Eva.Gefuehle.kann.man.nicht....
Lucky.Number.Slevin.2006.GER...
Lucky.Number.Slevin.2006.GER...
Wyoming.1999.German.DTS.DL.1...

 
 
Sickle.Prepare.to.Hell.2013.German.DL.1080p.BluRay.x264-RSG
Jahr: 2013
Genre: Horror, Thriller
Sprache: Deutsch DTS | Englisch DTS
Laufzeit: 1h 17mn
Bitrate: 13.2 Mbps
Format: MKV
Größe: 7.16 GiB
Release:

Beschreibung:

Travis und seine Band überfallen einen von der russischen Mafia betriebenen Stripklub und richten dabei ein Blutbad an. Auf ihrer Flucht zur mexikanischen Grenze kommt die Gang nach Redstone, einem abgelegenen und inzestverseuchten Dorf im amerikanischen Hinterland. Dort wartet schon Sheriff Slade Sickle auf die Ganoven. Mit seiner ganz eigenen grausamen und sadistischen Art der Rechtsprechung geht er gegen Travis und seine Leute vor. Es beginnt eine lange Nacht des Sterbens!



Complete name                            : rsg-sickle-1080p.mkv
Format                                   : Matroska
Format version                           : Version 2
File size                                : 7.16 GiB
Duration                                 : 1h 17mn
Overall bit rate                         : 13.2 Mbps
Writing application                      : mkvmerge v4.1.1 ('Bouncin' Back') built on Jul  3 2010 22:54:08
Writing library                          : libebml v1.0.0 + libmatroska v1.0

Video
ID                                       : 1
Format                                   : AVC
Format/Info                              : Advanced Video Codec
Format profile                           : [email protected]
Format settings, CABAC                   : Yes
Format settings, ReFrames                : 4 frames
Codec ID                                 : V_MPEG4/ISO/AVC
Duration                                 : 1h 17mn
Bit rate                                 : 9 930 Kbps
Width                                    : 1 920 pixels
Height                                   : 1 080 pixels
Display aspect ratio                     : 16:9
Frame rate mode                          : Constant
Frame rate                               : 25.000 fps
Color space                              : YUV
Chroma subsampling                       : 4:2:0
Bit depth                                : 8 bits
Scan type                                : Progressive
Bits/(Pixel*Frame)                       : 0.192
Stream size                              : 5.39 GiB (75%)
Writing library                          : x264 core 138 r2358 9e941d1
Encoding settings                        : cabac=1 / ref=4 / deblock=1:-1:-1 / analyse=0x3:0x133 / me=umh / subme=7 / psy=1 / psy_rd=1.00:0.15 / mixed_ref=1 / me_range=16 / chroma_me=1 / trellis=1 / 8x8dct=1 / cqm=0 / deadzone=21,11 / fast_pskip=0 / chroma_qp_offset=-3 / threads=18 / lookahead_threads=3 / sliced_threads=0 / nr=0 / decimate=1 / interlaced=0 / bluray_compat=0 / constrained_intra=0 / bframes=3 / b_pyramid=2 / b_adapt=1 / b_bias=0 / direct=3 / weightb=1 / open_gop=0 / weightp=2 / keyint=250 / keyint_min=25 / scenecut=40 / intra_refresh=0 / rc_lookahead=40 / rc=crf / mbtree=1 / crf=20.0 / qcomp=0.60 / qpmin=10 / qpmax=69 / qpstep=4 / ip_ratio=1.40 / aq=1:1.00
Language                                 : English
Default                                  : Yes
Forced                                   : No

Audio #1
ID                                       : 2
Format                                   : DTS
Format/Info                              : Digital Theater Systems
Mode                                     : 16
Format settings, Endianness              : Big
Codec ID                                 : A_DTS
Duration                                 : 1h 17mn
Bit rate mode                            : Constant
Bit rate                                 : 1 509 Kbps
Channel(s)                               : 6 channels
Channel positions                        : Front: L C R, Side: L R, LFE
Sampling rate                            : 48.0 KHz
Bit depth                                : 16 bits
Compression mode                         : Lossy
Stream size                              : 838 MiB (11%)
Language                                 : German
Default                                  : Yes
Forced                                   : No

Audio #2
ID                                       : 3
Format                                   : DTS
Format/Info                              : Digital Theater Systems
Mode                                     : 16
Format settings, Endianness              : Big
Codec ID                                 : A_DTS
Duration                                 : 1h 17mn
Bit rate mode                            : Constant
Bit rate                                 : 1 509 Kbps
Channel(s)                               : 6 channels
Channel positions                        : Front: L C R, Side: L R, LFE
Sampling rate                            : 48.0 KHz
Bit depth                                : 16 bits
Compression mode                         : Lossy
Stream size                              : 838 MiB (11%)
Language                                 : English
Default                                  : Yes
Forced                                   : No


Download:
Share Online | Uploaded Share Online | UploadedShare Online | UploadedShare Online | Uploaded
 

Kommentare