Crystal Blaze | Tujamo feat. Sorana - One On One (Official Music Video) | Seraph of the End
 


 




Wir sind wenn hd-area.org mal ausfällt unter hd-area.biz erreichbar


Hier klickenfür Informationen zur Umgehung staatlicher Zensurmaßnahmen




Filmwünsche können bei uns im Forum abgegeben werden

Wir Speichern Nicht




 
 
 
Top Releases
Live.by.Night.2016.German.Du...
I.am.not.your.Negro.2016.Ger...
I.am.not.your.Negro.2016.Ger...
The.Devils.Candy.2015.German...
Erpressung.Wie.viel.ist.dein...
Hell.or.High.Water.2016.Germ...
Sicario.2015.German.DTS.DL.1...
Loving.2016.German.DTS.DL.10...
Der.grosse.Trip.Wild.2014.Ge...
Der.grosse.Trip.Wild.2014.Ge...

Cinedubs
King.Arthur.Legend.of.the.Sw...
King.Arthur.Legend.of.the.Sw...
Chips.German.DL.AC3.Dubbed.7...
Chips.German.DL.AC3.Dubbed.1...
Kong.Skull.Island.German.DL....
Kong.Skull.Island.German.DL....
Resident.Evil.The.Final.Chap...
Resident.Evil.The.Final.Chap...
Resident.Evil.The.Final.Chap...
Resident.Evil.Vendetta.Germa...

Neuerscheinungen 2016-17
Dont.Hang.Up.2016.German.DL....
Voice.from.the.Stone.Ruf.aus...
Let.Her.Out.2016.German.720p...
Dont.Hang.Up.2016.German.DL....
Dont.Hang.Up.2016.German.720...
Let.Her.Out.2016.German.DL.1...
Voice.from.the.Stone.Ruf.aus...
Voice.from.the.Stone.Ruf.aus...
Voice.from.the.Stone.Ruf.aus...
The.Shadow.Man.2017.German.D...

XXX
PornMegaLoad.17.06.22.Prince...
PlayboyPlus.17.06.23.Katya.C...
Porntugal.15.12.02.Rebecca.P...
MyFirstSexTeacher.17.06.23.A...
PornMegaLoad.17.06.21.Reyna....
Porntugal.15.12.11.Rebecca.P...
Porntugal.15.12.04.Sonia.Kel...
NubileFilms.17.06.24.Anie.Da...
Penthouse.16.05.02.Gracie.Gl...
Porntugal.15.12.02.Sonia.Kel...
Penthouse.16.05.01.Angela.So...
PervsOnPatrol.17.06.23.Audre...
NuruMassage.17.06.23.Brett.R...
OnlyTeenBlowJobs.17.06.22.Al...
MikaelaWitt.17.06.23.My.Perf...
MikaelaWitt.17.05.12.Horny.L...
PornMegaLoad.17.06.21.Joana....
PornMegaLoad.17.06.22.Velvet...
MikaelaWitt.17.06.09.Obey.Yo...
OralOverdose.17.06.22.Penelo...

3D
Kong.Skull.Island.3D.2017.CO...
Storm.Surfers.3D.2012.Bluray...
Die.irre.Heldentour.des.Bill...
Die.Bestimmung.Insurgent.3D....
Die.Bestimmung.Insurgent.3D....
The.Great.Wall.3D.2016.multi...
San.Andreas.3D.2015.German.D...
Mojin.The.Lost.Legend.3D.201...
The.LEGO.Batman.Movie.3D.201...
The.LEGO.Batman.Movie.2017.3...
The.LEGO.Batman.Movie.2017.3...
Kraftwerk.3D.12345678.2016.2...
Die.irre.Heldentour.des.Bill...
Die.irre.Heldentour.des.Bill...
L.A.Outlaws.Die.Gesetzlosen....

Old_Stuff
Lie.With.Me.Liebe.Mich.2005....
Zurueck.zu.Dir.2000.GERMAN.A...
P.O.E.-.Project.of.Evil.UNCU...
Fields.of.the.Dead.3D.2014.D...
Feuerwerk.am.helllichten.Tag...
Pitch.Perfect.2012.German.DT...
Das.A-Team.S05.German.DUBBED...
Das.A-Team.S05.German.DUBBED...
House.Rules.for.Bad.Girls.3D...
Return.To.Nuke.Em.High.Volum...
Dragons.of.Camelot.2014.DUAL...
Amy.Sie.oeffnet.das.Tor.zur....
13.Eerie.We.Prey.For.You.UNC...
Codename.U.N.C.L.E.2015.MULT...
Halloween.Resurrection.2002....

Musik
The.Beatles.Sgt.Peppers.Lone...
The.Prometheus.Dolby.Atmos.E...
R.E.M.OUT.OF.TIME.25th.Anniv...
The.Rolling.Stones.GRRR.BR-A...
Mussorgsky.Bilder.einer.Auss...
Yes.-.The.Yes.Album.Bluray-A...
Carlos.Heredia.Gypsy.Flamenc...
SPES.2014.complete.Bluray.un...
Carlos.Santana.Collection.19...
Pink.Floyd.The.Endless.River...
The.Hyperion.Romantic.Piano....
Putumayo.113.CD.Flac.lossles...

Filme
Shadowhunters.The.Mortal.Ins...
Poldark.2015.S02.German.DL.D...
Chicago.Fire.S05.GERMAN.Dubb...
Animal.Kingdom.S01.GERMAN.DU...
Preacher.S02.GERMAN.DL.DUBBE...
Preacher.S02.GERMAN.Dubbed.7...
Fear.The.Walking.Dead.S03.Ge...
Ploetzlich.Onkel.2009.GERMAN...
The.Floating.Castle.Festung....
Best.of.the.Best.3.No.Turnin...
Und.taeglich.gruesst.der.Bra...
The.Dish.Verloren.im.Weltall...
Dr.Giggles.1992.UNCUT.German...
Dr.Giggles.1992.UNCUT.German...
Dr.Giggles.1992.UNCUT.ALTERN...
Dr.Giggles.1992.UNCUT.ALTERN...
Naruto.Shippuden.The.Movie.5...
Naruto.Shippuden.The.Movie.5...
MirrorMask.2005.German.DL.10...
MirrorMask.2005.German.DL.72...
The.Green.Inferno.Directors....
The.Green.Inferno.Directors....
Hardball.2001.German.AC3D.DL...
Sharkansas.Womens.Prison.Mas...

 
 
Scorpion.Brother.Skinhead.Fighter.2013.German.DL.1080p.BluRay.x264-ENCOUNTERS
Jahr: 2013
Genre: Drama, Romance, Thriller
Sprache: Deutsch DTS | Englisch DTS
Laufzeit: 1h 40mn
Bitrate: 6 245 Kbps
Format: MKV
Größe: 4.37 GiB
Release:

Beschreibung:

Julián, von allen nur Scorpion genannt, und sein bester Freund Luis sind Mitglieder einer brutalen Gruppe von Neonazis unter dem fanatischen Anführer Solís. Als Julián während seines Boxtrainings Alyssa kennenlernt und sich in sie verliebt, prallen zwei Welten aufeinander. Er beginnt, seine Ansichten infrage zu stellen und entfernt sich dabei immer mehr von der radikalen Szene. Doch Luis und der Rest der Gruppe wollen dies mit allen Mitteln verhindern…



General
Unique ID                                : 201768964484577669625465107192532469821 (0x97CB49FF803F0AE8A62CCDA0F5A4883D)
Complete name                            : encounters-scorpionbrskfi_1080p.mkv
Format                                   : Matroska
Format version                           : Version 2
File size                                : 4.37 GiB
Duration                                 : 1h 40mn
Overall bit rate                         : 6 245 Kbps
Encoded date                             : UTC 2014-01-23 23:18:45
Writing application                      : mkvmerge v5.0.0 ('Die Wahre Liebe') built on Sep 25 2011 20:33:49
Writing library                          : libebml v1.2.2 + libmatroska v1.3.0

Video
ID                                       : 1
Format                                   : AVC
Format/Info                              : Advanced Video Codec
Format profile                           : [email protected]
Format settings, CABAC                   : Yes
Format settings, ReFrames                : 5 frames
Codec ID                                 : V_MPEG4/ISO/AVC
Duration                                 : 1h 40mn
Bit rate                                 : 3 103 Kbps
Width                                    : 1 920 pixels
Height                                   : 816 pixels
Display aspect ratio                     : 2.35:1
Frame rate mode                          : Constant
Frame rate                               : 24.000 fps
Color space                              : YUV
Chroma subsampling                       : 4:2:0
Bit depth                                : 8 bits
Scan type                                : Progressive
Bits/(Pixel*Frame)                       : 0.083
Stream size                              : 2.17 GiB (50%)
Writing library                          : x264 core 140 r2377 1ca7bb9
Encoding settings                        : cabac=1 / ref=5 / deblock=1:0:0 / analyse=0x3:0x113 / me=umh / subme=7 / psy=1 / psy_rd=1.00:0.00 / mixed_ref=1 / me_range=16 / chroma_me=1 / trellis=1 / 8x8dct=1 / cqm=0 / deadzone=21,11 / fast_pskip=0 / chroma_qp_offset=-2 / threads=18 / lookahead_threads=3 / sliced_threads=0 / nr=0 / decimate=1 / interlaced=0 / bluray_compat=0 / constrained_intra=0 / bframes=3 / b_pyramid=2 / b_adapt=1 / b_bias=0 / direct=1 / weightb=1 / open_gop=0 / weightp=2 / keyint=250 / keyint_min=24 / scenecut=40 / intra_refresh=0 / rc_lookahead=40 / rc=crf / mbtree=1 / crf=20.0 / qcomp=0.60 / qpmin=0 / qpmax=69 / qpstep=4 / ip_ratio=1.40 / aq=1:1.00
Default                                  : Yes
Forced                                   : No

Audio #1
ID                                       : 2
Format                                   : DTS
Format/Info                              : Digital Theater Systems
Mode                                     : 16
Format settings, Endianness              : Big
Codec ID                                 : A_DTS
Duration                                 : 1h 40mn
Bit rate mode                            : Constant
Bit rate                                 : 1 509 Kbps
Channel(s)                               : 6 channels
Channel positions                        : Front: L C R, Side: L R, LFE
Sampling rate                            : 48.0 KHz
Bit depth                                : 24 bits
Compression mode                         : Lossy
Stream size                              : 1.06 GiB (24%)
Language                                 : German
Default                                  : Yes
Forced                                   : No

Audio #2
ID                                       : 3
Format                                   : DTS
Format/Info                              : Digital Theater Systems
Mode                                     : 16
Format settings, Endianness              : Big
Codec ID                                 : A_DTS
Duration                                 : 1h 40mn
Bit rate mode                            : Constant
Bit rate                                 : 1 509 Kbps
Channel(s)                               : 6 channels
Channel positions                        : Front: L C R, Side: L R, LFE
Sampling rate                            : 48.0 KHz
Bit depth                                : 24 bits
Compression mode                         : Lossy
Stream size                              : 1.06 GiB (24%)
Language                                 : Spanish
Default                                  : No
Forced                                   : No

Text
ID                                       : 4
Format                                   : UTF-8
Codec ID                                 : S_TEXT/UTF8
Codec ID/Info                            : UTF-8 Plain Text
Language                                 : German
Default                                  : Yes
Forced                                   : No


Download:
Share Online | Uploaded Share Online | UploadedShare Online | UploadedShare Online | Uploaded
 

Kommentare