Nina (2016) | VICE News Tonight 2017.05.17 | Hanaukyo Maid Team La Verite
 


 




Wir sind wenn hd-area.org mal ausfällt unter hd-area.biz erreichbar


Hier klickenfür Informationen zur Umgehung staatlicher Zensurmaßnahmen




Filmwünsche können bei uns im Forum abgegeben werden

Wir Speichern Nicht




 
 
 
Top Releases
T2.Trainspotting.German.DL.....
T2.Trainspotting.German.DL.7...
La.La.Land.2016.MULTi.COMPLE...
Jackie.Die.First.Lady.2016.G...
Die.irre.Heldentour.des.Bill...
Die.irre.Heldentour.des.Bill...
Jackie.Die.First.Lady.2016.G...
Die.irre.Heldentour.des.Bill...
Die.Irre.Heldentour.des.Bill...
The.Devils.Candy.2015.German...

Cinedubs
The.LEGO.Batman.Movie.German...
The.LEGO.Batman.Movie.German...
Logan.-.The.Wolverine.NOIR.E...
Logan.-.The.Wolverine.German...
Logan.-.The.Wolverine.German...
Shin.Godzilla.German.MD.1080...
John.Wick.Kapitel.2.German.A...
John.Wick.Kapitel.2.German.A...
Shin.Godzilla.German.AC3MD.7...
Regeln.spielen.keine.Rolle.G...

Neuerscheinungen 2016-17
Heimliche.Blicke.OVA.2013.DU...
Radio.Heimat.German.1080p.Bl...
Sex.And.Crime.2016.German.10...
Radio.Heimat.German.720p.Blu...
Night.of.Something.Strange.2...
Night.of.Something.Strange.2...
Die.Irre.Heldentour.des.Bill...
xXx.Die.Rueckkehr.des.Xander...
Jackie.Die.First.Lady.2016.G...
Trash.Fire.2016.MULTi.COMPLE...

XXX
AussieFellatioQueens.E35.Ril...
AussieFellatioQueens.E34.Ril...
AussieFellatioQueens.E32.Ann...
WetAndPuffy.17.05.19.Jimena....
UpHerAsshole.17.05.18.Candic...
AussieFellatioQueens.E33.Amy...
JulesJordan.17.05.22.Bailey....
Black.Street.Hookers.100.XXX...
NaughtyOffice.17.05.22.Carte...
Penthouse.16.06.12.Brooklyn....
MontysPOV.17.05.19.Emma.Loui...
AngelaWhite.15.05.04.Angela....
AllOver30.17.05.22.Sage.Ques...
NewSensations.17.05.22.Madis...
AussieFellatioQueens.E37.Dan...
Penthouse.16.06.18.Evelyn.Li...
Penthouse.16.06.13.Nicole.An...
QuestForOrgasm.17.05.22.Chri...
PlayboyPlus.17.05.22.Veronik...
LivingWithAPornstar.17.05.22...

3D
xXx.Die.Rueckkehr.des.Xander...
Night.Fare.3D.2015.DUAL.COMP...
Night.Fare.Bezahl.mit.deinem...
xXx.Die.Rueckkehr.des.Xande...
World.War.Z.3D.2013.German.D...
Die.Irre.Heldentour.des.Bill...
Machine.Wars.Planet.der.Robo...
The.Great.Wall.3D.2016.COMPL...
The.Great.Wall.3D.2016.Germa...
Zambezia.In.jedem.steckt.ein...
Passengers.3D.2016.German.DL...
Assassins.Creed.3D.2016.Germ...
Die.dunkle.Graefin.2015.3D.G...
Die.dunkle.Graefin.3D.2015.M...
Air.Speed.Fast.and.Ferocious...

Old_Stuff
Der.gestiefelte.Kater.2011.M...
Slither.Voll.auf.den.Schleim...
Shadowhunters.S01.German.DL....
The.Purge.Anarchy.2014.Germa...
Die.Sieben.Samurai.LANGFASSU...
Die.Sieben.Samurai.1954.LANG...
Bereavement.In.den.Haenden.d...
Drifter.Alle.Antworten.liege...
King.of.Queens.S06.DUAL.COMP...
Speed.2.Cruise.Control.1997....
Vamperifica.2011.German.DL.1...
The.Hobbit.The.Desolation.of...
Der.Hobbit.Eine.Unerwartete....
Das.Boese.I.Phantasm.I.1979....
Das.Boese.I.Phantasm.I.1979....

Musik
The.Prometheus.Dolby.Atmos.E...
R.E.M.OUT.OF.TIME.25th.Anniv...
The.Rolling.Stones.GRRR.BR-A...
Mussorgsky.Bilder.einer.Auss...
Yes.-.The.Yes.Album.Bluray-A...
Carlos.Heredia.Gypsy.Flamenc...
SPES.2014.complete.Bluray.un...
Carlos.Santana.Collection.19...
Pink.Floyd.The.Endless.River...
The.Hyperion.Romantic.Piano....
Putumayo.113.CD.Flac.lossles...
UFO – Let It Roll (Limited...

Filme
Zum.Teufel.mit.den.Millionen...
20.Minutes.The.Power.of.Few....
Unterwegs.mit.Evie.2006.Germ...
Sensoria.2015.German.1080p.B...
Sensoria.2015.German.720p.Bl...
Unter.Bauern.Retter.in.der.N...
Das.Geheimnis.des.verborgene...
The.Tunnel.S01-S02.Complete....
Joint.Security.Area.2000.Ger...
Die.drei.Fragezeichen.Das.Ge...
Southpaw.2015.German.DL.1080...
Southpaw.2015.German.DL.1080...
Southpaw.2015.German.DTS.DL....
Vidocq.German.DL.2001.1080p....
Hackers.1995.1080p.GERMAN.DU...
Hooligans.2005.German.DTS.DL...
Schatz.du.strahlst.ja.so.198...
Der.Polarexpress.2004.German...
Helden.1958.German.1080p.Blu...
Helden.1958.German.720p.BluR...
Werner.-.Volles.Roor.-.1999....
Erbarmungslos.1992.4K.Remast...
American.Crime.Story.S01.COM...
Saboteure.im.Eis.Operation.S...

 
 
The.Great.Wall.3D.2016.German.DL.1080p.BluRay.x264-STEREOSCOPiC
Jahr: 2016
Genre: Action | Abenteuer | Fantasy
Sprache: Deutsch AC3 | Englisch AC3
Laufzeit: 1h 43mn
Bitrate: 6 938 Kbps
Format: MKV
Größe: 4.99 GiB
Release:

Beschreibung:

Die Wüste Gobi im 15. Jahrhundert: William Garin (Matt Damon) und Pero Tovar (Pedro Pascal), zwei Söldner, flüchten vor einer Attacke des Volkes Kitan. Durch einen Zufall kommt William in Besitz der Klaue einer unbekannten Kreatur – und wenig später stehen die zwei Soldaten einer riesigen Horde dieser Monster gegenüber: Nachdem William und Pero an einer Festung in der Chinesischen Mauer angekommen sind, werden sie nämlich von einer Elitearmee unter Führung General Shaos (Zhang Hanyu) gefangengenommen, damit sie gegen die Wesen Tao Tie kämpfen. Das sind fürchterliche Kreaturen, die alle 60 Jahre von einem nahen Berg aus anrücken, um alles zu vernichten, was sich ihnen in den Weg stellt. Schnell merken William und Pero, warum die Chinesische Mauer so lang, so hoch und so stabil gebaut wurde…
 

 



General
Unique ID                                : 189303279403834319961180216528628099997 (0x8E6A7C45A1089ED1A36D9BEB9D4C2B9D)
Complete name                            : gwall3d-180.stero.mkv
Format                                   : Matroska
Format version                           : Version 4 / Version 2
File size                                : 4.99 GiB
Duration                                 : 1h 43mn
Overall bit rate                         : 6 938 Kbps
Encoded date                             : UTC 2017-05-15 15:42:50
Writing application                      : mkvmerge v9.7.1 ('Pandemonium') 64bit
Writing library                          : libebml v1.3.4 + libmatroska v1.4.5
DURATION                                 : 01:43:03.424000000
NUMBER_OF_FRAMES                         : 193232
NUMBER_OF_BYTES                          : 445206528
_STATISTICS_WRITING_APP                  : mkvmerge v9.7.1 ('Pandemonium') 64bit
_STATISTICS_WRITING_DATE_UTC             : 2017-05-15 15:42:50
_STATISTICS_TAGS                         : BPS DURATION NUMBER_OF_FRAMES NUMBER_OF_BYTES

Video
ID                                       : 1
Format                                   : AVC
Format/Info                              : Advanced Video Codec
Format profile                           : [email protected]
Format settings, CABAC                   : Yes
Format settings, ReFrames                : 5 frames
Codec ID                                 : V_MPEG4/ISO/AVC
Duration                                 : 1h 43mn
Bit rate                                 : 5 584 Kbps
Width                                    : 1 920 pixels
Height                                   : 808 pixels
Display aspect ratio                     : 2.40:1
Frame rate mode                          : Constant
Frame rate                               : 23.976 fps
Color space                              : YUV
Chroma subsampling                       : 4:2:0
Bit depth                                : 8 bits
Scan type                                : Progressive
Bits/(Pixel*Frame)                       : 0.150
Stream size                              : 4.02 GiB (80%)
Writing library                          : x264 core 148 r2762 90a61ec
Encoding settings                        : cabac=1 / ref=5 / deblock=1:-3:-3 / analyse=0x3:0x133 / me=umh / subme=8 / psy=1 / psy_rd=1.00:0.15 / mixed_ref=1 / me_range=16 / chroma_me=1 / trellis=1 / 8x8dct=1 / cqm=0 / deadzone=21,11 / fast_pskip=0 / chroma_qp_offset=-3 / threads=12 / lookahead_threads=2 / sliced_threads=0 / nr=0 / decimate=1 / interlaced=0 / bluray_compat=0 / constrained_intra=0 / bframes=3 / b_pyramid=2 / b_adapt=2 / b_bias=0 / direct=3 / weightb=1 / open_gop=0 / weightp=2 / keyint=240 / keyint_min=24 / scenecut=40 / intra_refresh=0 / rc_lookahead=50 / rc=crf / mbtree=1 / crf=20.0 / qcomp=0.60 / qpmin=0 / qpmax=69 / qpstep=4 / ip_ratio=1.40 / aq=1:1.00
Language                                 : German
Default                                  : Yes
Forced                                   : No
DURATION                                 : 01:43:03.381000000
NUMBER_OF_FRAMES                         : 148253
NUMBER_OF_BYTES                          : 4418055037
_STATISTICS_WRITING_APP                  : mkvmerge v9.7.1 ('Pandemonium') 64bit
_STATISTICS_WRITING_DATE_UTC             : 2017-05-15 15:42:50
_STATISTICS_TAGS                         : BPS DURATION NUMBER_OF_FRAMES NUMBER_OF_BYTES

Audio #1
ID                                       : 2
Format                                   : AC-3
Format/Info                              : Audio Coding 3
Mode extension                           : CM (complete main)
Format settings, Endianness              : Big
Codec ID                                 : A_AC3
Duration                                 : 1h 43mn
Bit rate mode                            : Constant
Bit rate                                 : 576 Kbps
Channel(s)                               : 6 channels
Channel positions                        : Front: L C R, Side: L R, LFE
Sampling rate                            : 48.0 KHz
Bit depth                                : 16 bits
Compression mode                         : Lossy
Stream size                              : 425 MiB (8%)
Language                                 : German
Default                                  : Yes
Forced                                   : No

Audio #2
ID                                       : 3
Format                                   : AC-3
Format/Info                              : Audio Coding 3
Mode extension                           : CM (complete main)
Format settings, Endianness              : Big
Codec ID                                 : A_AC3
Duration                                 : 1h 43mn
Bit rate mode                            : Constant
Bit rate                                 : 640 Kbps
Channel(s)                               : 6 channels
Channel positions                        : Front: L C R, Side: L R, LFE
Sampling rate                            : 48.0 KHz
Bit depth                                : 16 bits
Compression mode                         : Lossy
Stream size                              : 472 MiB (9%)
Language                                 : English
Default                                  : No
Forced                                   : No

Text #1
ID                                       : 4
Format                                   : VobSub
Muxing mode                              : zlib
Codec ID                                 : S_VOBSUB
Codec ID/Info                            : The same subtitle format used on DVDs
Language                                 : German
Default                                  : Yes
Forced                                   : No

Text #2
ID                                       : 5
Format                                   : VobSub
Muxing mode                              : zlib
Codec ID                                 : S_VOBSUB
Codec ID/Info                            : The same subtitle format used on DVDs
Language                                 : English
Default                                  : No
Forced                                   : No


Download:
Share Online | Uploaded Share Online | UploadedShare Online | UploadedShare Online | Uploaded
 

Kommentare